  0
SECTION
  2
HEADER
  9
$ACADVER
  1
AC1015
  9
$ACADMAINTVER
 70
     6
  9
$DWGCODEPAGE
  3
ANSI_1252
  9
$INSBASE
 10
0.0
 20
0.0
 30
0.0
  9
$EXTMIN
 10
0.0
 20
0.0
 30
0.0
  9
$EXTMAX
 10
420.0
 20
297.0
 30
0.0
  9
$LIMMIN
 10
0.0
 20
0.0
  9
$LIMMAX
 10
420.0
 20
297.0
  9
$ORTHOMODE
 70
     0
  9
$REGENMODE
 70
     1
  9
$FILLMODE
 70
     1
  9
$QTEXTMODE
 70
     0
  9
$MIRRTEXT
 70
     1
  9
$LTSCALE
 40
1.0
  9
$ATTMODE
 70
     1
  9
$TEXTSIZE
 40
3.5
  9
$TRACEWID
 40
1.0
  9
$TEXTSTYLE
  7
Standard
  9
$CLAYER
  8
0
  9
$CELTYPE
  6
ByLayer
  9
$CECOLOR
 62
   256
  9
$CELTSCALE
 40
1.0
  9
$DISPSILH
 70
     0
  9
$DIMSCALE
 40
1.0
  9
$DIMASZ
 40
3.5
  9
$DIMEXO
 40
0.1
  9
$DIMDLI
 40
3.75
  9
$DIMRND
 40
0.0
  9
$DIMDLE
 40
0.0
  9
$DIMEXE
 40
1.0
  9
$DIMTP
 40
0.0
  9
$DIMTM
 40
0.0
  9
$DIMTXT
 40
3.5
  9
$DIMCEN
 40
2.5
  9
$DIMTSZ
 40
0.0
  9
$DIMTOL
 70
     0
  9
$DIMLIM
 70
     0
  9
$DIMTIH
 70
     1
  9
$DIMTOH
 70
     1
  9
$DIMSE1
 70
     0
  9
$DIMSE2
 70
     0
  9
$DIMTAD
 70
     1
  9
$DIMZIN
 70
     0
  9
$DIMBLK
  1

  9
$DIMASO
 70
     1
  9
$DIMSHO
 70
     1
  9
$DIMPOST
  1

  9
$DIMAPOST
  1

  9
$DIMALT
 70
     0
  9
$DIMALTD
 70
     3
  9
$DIMALTF
 40
0.0393700787
  9
$DIMLFAC
 40
1.0
  9
$DIMTOFL
 70
     1
  9
$DIMTVP
 40
0.0
  9
$DIMTIX
 70
     0
  9
$DIMSOXD
 70
     0
  9
$DIMSAH
 70
     0
  9
$DIMBLK1
  1

  9
$DIMBLK2
  1

  9
$DIMSTYLE
  2
ISO-25
  9
$DIMCLRD
 70
     0
  9
$DIMCLRE
 70
     0
  9
$DIMCLRT
 70
     0
  9
$DIMTFAC
 40
1.0
  9
$DIMGAP
 40
2.0
  9
$DIMJUST
 70
     0
  9
$DIMSD1
 70
     0
  9
$DIMSD2
 70
     0
  9
$DIMTOLJ
 70
     0
  9
$DIMTZIN
 70
     0
  9
$DIMALTZ
 70
     0
  9
$DIMALTTZ
 70
     0
  9
$DIMUPT
 70
     0
  9
$DIMDEC
 70
     2
  9
$DIMTDEC
 70
     3
  9
$DIMALTU
 70
     2
  9
$DIMALTTD
 70
     3
  9
$DIMTXSTY
  7
Standard
  9
$DIMAUNIT
 70
     0
  9
$DIMADEC
 70
     2
  9
$DIMALTRND
 40
0.0
  9
$DIMAZIN
 70
     0
  9
$DIMDSEP
 70
    44
  9
$DIMATFIT
 70
     3
  9
$DIMFRAC
 70
     0
  9
$DIMLDRBLK
  1

  9
$DIMLUNIT
 70
     2
  9
$DIMLWD
 70
    -2
  9
$DIMLWE
 70
    -2
  9
$DIMTMOVE
 70
     0
  9
$LUNITS
 70
     2
  9
$LUPREC
 70
     2
  9
$SKETCHINC
 40
1.0
  9
$FILLETRAD
 40
10.0
  9
$AUNITS
 70
     0
  9
$AUPREC
 70
     2
  9
$MENU
  1
.
  9
$ELEVATION
 40
0.0
  9
$PELEVATION
 40
0.0
  9
$THICKNESS
 40
0.0
  9
$LIMCHECK
 70
     0
  9
$CHAMFERA
 40
0.0
  9
$CHAMFERB
 40
0.0
  9
$CHAMFERC
 40
0.0
  9
$CHAMFERD
 40
0.0
  9
$SKPOLY
 70
     0
  9
$TDCREATE
 40
2458353.74035294
  9
$TDUCREATE
 40
2458353.657019606
  9
$TDUPDATE
 40
2458353.740360359
  9
$TDUUPDATE
 40
2458353.657027025
  9
$TDINDWG
 40
0.0000000116
  9
$TDUSRTIMER
 40
0.0000000116
  9
$USRTIMER
 70
     1
  9
$ANGBASE
 50
0.0
  9
$ANGDIR
 70
     0
  9
$PDMODE
 70
     0
  9
$PDSIZE
 40
-1.0
  9
$PLINEWID
 40
0.0
  9
$SPLFRAME
 70
     0
  9
$SPLINETYPE
 70
     6
  9
$SPLINESEGS
 70
     8
  9
$HANDSEED
  5
55B
  9
$SURFTAB1
 70
     6
  9
$SURFTAB2
 70
     6
  9
$SURFTYPE
 70
     6
  9
$SURFU
 70
     6
  9
$SURFV
 70
     6
  9
$UCSBASE
  2

  9
$UCSNAME
  2

  9
$UCSORG
 10
0.0
 20
0.0
 30
0.0
  9
$UCSXDIR
 10
1.0
 20
0.0
 30
0.0
  9
$UCSYDIR
 10
0.0
 20
1.0
 30
0.0
  9
$UCSORTHOREF
  2

  9
$UCSORTHOVIEW
 70
     0
  9
$UCSORGTOP
 10
0.0
 20
0.0
 30
0.0
  9
$UCSORGBOTTOM
 10
0.0
 20
0.0
 30
0.0
  9
$UCSORGLEFT
 10
0.0
 20
0.0
 30
0.0
  9
$UCSORGRIGHT
 10
0.0
 20
0.0
 30
0.0
  9
$UCSORGFRONT
 10
0.0
 20
0.0
 30
0.0
  9
$UCSORGBACK
 10
0.0
 20
0.0
 30
0.0
  9
$PUCSBASE
  2

  9
$PUCSNAME
  2

  9
$PUCSORG
 10
0.0
 20
0.0
 30
0.0
  9
$PUCSXDIR
 10
1.0
 20
0.0
 30
0.0
  9
$PUCSYDIR
 10
0.0
 20
1.0
 30
0.0
  9
$PUCSORTHOREF
  2

  9
$PUCSORTHOVIEW
 70
     0
  9
$PUCSORGTOP
 10
0.0
 20
0.0
 30
0.0
  9
$PUCSORGBOTTOM
 10
0.0
 20
0.0
 30
0.0
  9
$PUCSORGLEFT
 10
0.0
 20
0.0
 30
0.0
  9
$PUCSORGRIGHT
 10
0.0
 20
0.0
 30
0.0
  9
$PUCSORGFRONT
 10
0.0
 20
0.0
 30
0.0
  9
$PUCSORGBACK
 10
0.0
 20
0.0
 30
0.0
  9
$USERI1
 70
     0
  9
$USERI2
 70
     0
  9
$USERI3
 70
     0
  9
$USERI4
 70
     0
  9
$USERI5
 70
     0
  9
$USERR1
 40
0.0
  9
$USERR2
 40
0.0
  9
$USERR3
 40
0.0
  9
$USERR4
 40
0.0
  9
$USERR5
 40
0.0
  9
$WORLDVIEW
 70
     1
  9
$SHADEDGE
 70
     3
  9
$SHADEDIF
 70
    70
  9
$TILEMODE
 70
     1
  9
$MAXACTVP
 70
    64
  9
$PINSBASE
 10
0.0
 20
0.0
 30
0.0
  9
$PLIMCHECK
 70
     0
  9
$PEXTMIN
 10
1.0000000000E+20
 20
1.0000000000E+20
 30
1.0000000000E+20
  9
$PEXTMAX
 10
-1.0000000000E+20
 20
-1.0000000000E+20
 30
-1.0000000000E+20
  9
$PLIMMIN
 10
0.0
 20
0.0
  9
$PLIMMAX
 10
420.0
 20
297.0
  9
$UNITMODE
 70
     0
  9
$VISRETAIN
 70
     1
  9
$PLINEGEN
 70
     0
  9
$PSLTSCALE
 70
     1
  9
$TREEDEPTH
 70
  3020
  9
$CMLSTYLE
  2
Standard
  9
$CMLJUST
 70
     0
  9
$CMLSCALE
 40
20.0
  9
$PROXYGRAPHICS
 70
     1
  9
$MEASUREMENT
 70
     1
  9
$CELWEIGHT
370
    -1
  9
$ENDCAPS
280
     0
  9
$JOINSTYLE
280
     0
  9
$LWDISPLAY
290
     1
  9
$INSUNITS
 70
     4
  9
$HYPERLINKBASE
  1

  9
$STYLESHEET
  1

  9
$XEDIT
290
     1
  9
$CEPSNTYPE
380
     0
  9
$PSTYLEMODE
290
     1
  9
$FINGERPRINTGUID
  2
{DB979218-284C-45A2-A6B7-E95FA6470518}
  9
$VERSIONGUID
  2
{FAEB1C32-E019-11D5-929B-00C0DF256EC4}
  9
$EXTNAMES
290
     1
  9
$PSVPSCALE
 40
0.0
  9
$OLESTARTUP
290
     0
  0
ENDSEC
  0
SECTION
  2
CLASSES
  0
CLASS
  1
ACDBDICTIONARYWDFLT
  2
AcDbDictionaryWithDefault
  3
ObjectDBX Classes
 90
        0
280
     0
281
     0
  0
CLASS
  1
VISUALSTYLE
  2
AcDbVisualStyle
  3
ObjectDBX Classes
 90
     4095
280
     0
281
     0
  0
CLASS
  1
MATERIAL
  2
AcDbMaterial
  3
ObjectDBX Classes
 90
     1153
280
     0
281
     0
  0
CLASS
  1
SCALE
  2
AcDbScale
  3
ObjectDBX Classes
 90
     1153
280
     0
281
     0
  0
CLASS
  1
TABLESTYLE
  2
AcDbTableStyle
  3
ObjectDBX Classes
 90
     4095
280
     0
281
     0
  0
CLASS
  1
MLEADERSTYLE
  2
AcDbMLeaderStyle
  3
ACDB_MLEADERSTYLE_CLASS
 90
     4095
280
     0
281
     0
  0
CLASS
  1
SUN
  2
AcDbSun
  3
SCENEOE
 90
     1153
280
     0
281
     0
  0
CLASS
  1
ACDBPLACEHOLDER
  2
AcDbPlaceHolder
  3
ObjectDBX Classes
 90
        0
280
     0
281
     0
  0
CLASS
  1
LAYOUT
  2
AcDbLayout
  3
ObjectDBX Classes
 90
        0
280
     0
281
     0
  0
ENDSEC
  0
SECTION
  2
TABLES
  0
TABLE
  2
VPORT
  5
8
330
0
100
AcDbSymbolTable
 70
     1
  0
VPORT
  5
29
330
8
100
AcDbSymbolTableRecord
100
AcDbViewportTableRecord
  2
*Active
 70
     0
 10
0.0
 20
0.0
 11
1.0
 21
1.0
 12
210.0
 22
148.5
 13
0.0
 23
0.0
 14
10.0
 24
10.0
 15
10.0
 25
10.0
 16
0.0
 26
0.0
 36
1.0
 17
0.0
 27
0.0
 37
0.0
 40
297.0
 41
1.4141414141
 42
50.0
 43
0.0
 44
0.0
 50
0.0
 51
0.0
 71
     0
 72
  2000
 73
     1
 74
     3
 75
     0
 76
     0
 77
     0
 78
     0
281
     0
 65
     1
110
0.0
120
0.0
130
0.0
111
1.0
121
0.0
131
0.0
112
0.0
122
1.0
132
0.0
 79
     0
146
0.0
  0
ENDTAB
  0
TABLE
  2
LTYPE
  5
5
330
0
100
AcDbSymbolTable
 70
     6
  0
LTYPE
  5
14
330
5
100
AcDbSymbolTableRecord
100
AcDbLinetypeTableRecord
  2
ByBlock
 70
     0
  3

 72
    65
 73
     0
 40
0.0
  0
LTYPE
  5
15
330
5
100
AcDbSymbolTableRecord
100
AcDbLinetypeTableRecord
  2
ByLayer
 70
     0
  3

 72
    65
 73
     0
 40
0.0
  0
LTYPE
  5
16
330
5
100
AcDbSymbolTableRecord
100
AcDbLinetypeTableRecord
  2
Continuous
 70
     0
  3
Solid line
 72
    65
 73
     0
 40
0.0
  0
LTYPE
  5
6E
330
5
100
AcDbSymbolTableRecord
100
AcDbLinetypeTableRecord
  2
HIDDEN
 70
     0
  3
Hidden __ __ __ __ __ __ __ __ __ __ __ __ __ __
 72
    65
 73
     2
 40
1.905
 49
1.27
 74
     0
 49
-0.635
 74
     0
  0
LTYPE
  5
6F
330
5
100
AcDbSymbolTableRecord
100
AcDbLinetypeTableRecord
  2
PHANTOM
 70
     0
  3
Phantom ______  __  __  ______  __  __  ______
 72
    65
 73
     6
 40
12.7
 49
6.35
 74
     0
 49
-1.27
 74
     0
 49
1.27
 74
     0
 49
-1.27
 74
     0
 49
1.27
 74
     0
 49
-1.27
 74
     0
  0
LTYPE
  5
70
330
5
100
AcDbSymbolTableRecord
100
AcDbLinetypeTableRecord
  2
CENTER
 70
     0
  3
Center ____ _ ____ _ ____ _ ____ _ ____ _ ____
 72
    65
 73
     4
 40
10.16
 49
6.35
 74
     0
 49
-1.27
 74
     0
 49
1.27
 74
     0
 49
-1.27
 74
     0
  0
LTYPE
  5
71
330
5
100
AcDbSymbolTableRecord
100
AcDbLinetypeTableRecord
  2
CENTERX2
 70
     0
  3
Center (2x) ________  __  ________  __  _____
 72
    65
 73
     4
 40
20.32
 49
12.7
 74
     0
 49
-2.54
 74
     0
 49
2.54
 74
     0
 49
-2.54
 74
     0
  0
LTYPE
  5
72
330
5
100
AcDbSymbolTableRecord
100
AcDbLinetypeTableRecord
  2
DOT2
 70
     0
  3
Dot (.5x) ........................................
 72
    65
 73
     2
 40
0.635
 49
0.0
 74
     0
 49
-0.635
 74
     0
  0
ENDTAB
  0
TABLE
  2
LAYER
  5
2
330
0
100
AcDbSymbolTable
 70
     9
  0
LAYER
  5
10
330
2
100
AcDbSymbolTableRecord
100
AcDbLayerTableRecord
  2
0
 70
     0
 62
     7
  6
Continuous
370
    -3
390
F
  0
LAYER
  5
73
330
2
100
AcDbSymbolTableRecord
100
AcDbLayerTableRecord
  2
VORLAGE_TEXT
 70
     0
 62
     7
  6
Continuous
370
    -3
390
F
  0
LAYER
  5
74
330
2
100
AcDbSymbolTableRecord
100
AcDbLayerTableRecord
  2
VORLAGE_BEMASSUNG
 70
     0
 62
    -5
  6
Continuous
290
     0
370
    -3
390
F
  0
LAYER
  5
75
330
2
100
AcDbSymbolTableRecord
100
AcDbLayerTableRecord
  2
TEXT
 70
     0
 62
     7
  6
Continuous
370
    -3
390
F
  0
LAYER
  5
76
330
2
100
AcDbSymbolTableRecord
100
AcDbLayerTableRecord
  2
LINIEN-DICK
 70
     0
 62
     7
  6
Continuous
370
    35
390
F
  0
LAYER
  5
77
330
2
100
AcDbSymbolTableRecord
100
AcDbLayerTableRecord
  2
LINIEN-NORMAL
 70
     0
 62
     7
  6
Continuous
370
    25
390
F
  0
LAYER
  5
78
330
2
100
AcDbSymbolTableRecord
100
AcDbLayerTableRecord
  2
LINIEN-DÜNN
 70
     0
 62
     7
  6
Continuous
370
    -3
390
F
  0
LAYER
  5
79
330
2
100
AcDbSymbolTableRecord
100
AcDbLayerTableRecord
  2
TEXT-DEUTSCH
 70
     0
 62
     7
  6
Continuous
370
    -3
390
F
  0
LAYER
  5
7A
330
2
100
AcDbSymbolTableRecord
100
AcDbLayerTableRecord
  2
TEXT-ENGLISCH
 70
     0
 62
    -7
  6
Continuous
290
     0
370
    -3
390
F
  0
ENDTAB
  0
TABLE
  2
STYLE
  5
3
330
0
100
AcDbSymbolTable
 70
     4
  0
STYLE
  5
11
330
3
100
AcDbSymbolTableRecord
100
AcDbTextStyleTableRecord
  2
Standard
 70
     0
 40
0.0
 41
1.0
 50
0.0
 71
     0
 42
3.5
  3
txt
  4

  0
STYLE
  5
EE
330
3
100
AcDbSymbolTableRecord
100
AcDbTextStyleTableRecord
  2
SLDTEXTSTYLE0
 70
     0
 40
0.0
 41
0.605
 50
0.0
 71
     0
 42
3.5
  3
TXT
  4

  0
STYLE
  5
F6
330
3
100
AcDbSymbolTableRecord
100
AcDbTextStyleTableRecord
  2
SLDTEXTSTYLE1
 70
     0
 40
0.0
 41
0.5715909091
 50
0.0
 71
     0
 42
3.5
  3
TXT
  4

  0
STYLE
  5
193
330
3
100
AcDbSymbolTableRecord
100
AcDbTextStyleTableRecord
  2
SLDTEXTSTYLE2
 70
     0
 40
0.0
 41
0.563
 50
0.0
 71
     0
 42
3.5
  3
TXT
  4

  0
ENDTAB
  0
TABLE
  2
VIEW
  5
6
330
0
100
AcDbSymbolTable
 70
     0
  0
ENDTAB
  0
TABLE
  2
UCS
  5
7
330
0
100
AcDbSymbolTable
 70
     0
  0
ENDTAB
  0
TABLE
  2
APPID
  5
9
330
0
100
AcDbSymbolTable
 70
     1
  0
APPID
  5
12
330
9
100
AcDbSymbolTableRecord
100
AcDbRegAppTableRecord
  2
ACAD
 70
     0
  0
ENDTAB
  0
TABLE
  2
DIMSTYLE
  5
A
330
0
100
AcDbSymbolTable
 70
     3
100
AcDbDimStyleTable
  0
DIMSTYLE
105
27
330
A
100
AcDbSymbolTableRecord
100
AcDbDimStyleTableRecord
  2
ISO-25
 70
     0
 41
2.5
 42
0.625
 43
3.75
 44
1.25
 73
     0
 74
     0
 77
     1
 78
     8
140
2.5
141
2.5
143
0.0393700787
147
0.625
171
     3
172
     1
178
     0
271
     2
272
     2
274
     3
278
    44
283
     0
284
     8
340
11
  0
DIMSTYLE
105
209
102
{ACAD_REACTORS
330
208
102
}
330
A
100
AcDbSymbolTableRecord
100
AcDbDimStyleTableRecord
  2
SLDDIMSTYLE0
 70
     0
 41
3.5
 44
0.0
 45
0.000000001
 73
     0
 74
     0
 77
     1
 78
    12
 79
     3
140
3.5
147
0.875
173
     1
178
     0
271
     1
272
     3
276
     2
284
    12
340
EE
  0
DIMSTYLE
105
214
102
{ACAD_REACTORS
330
213
330
288
330
292
330
3B1
330
3BB
330
3C5
330
3CF
102
}
330
A
100
AcDbSymbolTableRecord
100
AcDbDimStyleTableRecord
  2
SLDDIMSTYLE1
 70
     0
 41
3.5
 44
0.0
 45
0.000000001
 73
     0
 74
     0
 77
     1
 78
    12
 79
     3
140
3.5
147
0.875
173
     1
178
     0
271
     2
272
     3
276
     2
284
    12
340
EE
  0
ENDTAB
  0
TABLE
  2
BLOCK_RECORD
  5
1
330
0
100
AcDbSymbolTable
 70
    16
  0
BLOCK_RECORD
  5
1F
330
1
100
AcDbSymbolTableRecord
100
AcDbBlockTableRecord
  2
*Model_Space
340
22
  0
BLOCK_RECORD
  5
1B
330
1
100
AcDbSymbolTableRecord
100
AcDbBlockTableRecord
  2
*Paper_Space
340
1E
  0
BLOCK_RECORD
  5
23
330
1
100
AcDbSymbolTableRecord
100
AcDbBlockTableRecord
  2
*Paper_Space0
340
26
  0
BLOCK_RECORD
  5
7B
330
1
100
AcDbSymbolTableRecord
100
AcDbBlockTableRecord
  2
ACO-Logo
340
0
102
{BLKREFS
331
14A
102
}
  0
BLOCK_RECORD
  5
F1
330
1
100
AcDbSymbolTableRecord
100
AcDbBlockTableRecord
  2
SW_NOTE_0
340
0
102
{BLKREFS
331
F9
102
}
  0
BLOCK_RECORD
  5
172
330
1
100
AcDbSymbolTableRecord
100
AcDbBlockTableRecord
  2
SW_NOTE_1
340
0
102
{BLKREFS
331
17A
102
}
  0
BLOCK_RECORD
  5
20A
330
1
100
AcDbSymbolTableRecord
100
AcDbBlockTableRecord
  2
_D
340
0
  0
BLOCK_RECORD
  5
215
330
1
100
AcDbSymbolTableRecord
100
AcDbBlockTableRecord
  2
_D_1
340
0
  0
BLOCK_RECORD
  5
289
330
1
100
AcDbSymbolTableRecord
100
AcDbBlockTableRecord
  2
_D_2
340
0
  0
BLOCK_RECORD
  5
293
330
1
100
AcDbSymbolTableRecord
100
AcDbBlockTableRecord
  2
_D_3
340
0
  0
BLOCK_RECORD
  5
3B2
330
1
100
AcDbSymbolTableRecord
100
AcDbBlockTableRecord
  2
_D_4
340
0
  0
BLOCK_RECORD
  5
3BC
330
1
100
AcDbSymbolTableRecord
100
AcDbBlockTableRecord
  2
_D_5
340
0
  0
BLOCK_RECORD
  5
3C6
330
1
100
AcDbSymbolTableRecord
100
AcDbBlockTableRecord
  2
_D_6
340
0
  0
BLOCK_RECORD
  5
3D0
330
1
100
AcDbSymbolTableRecord
100
AcDbBlockTableRecord
  2
_D_7
340
0
  0
BLOCK_RECORD
  5
3D9
330
1
100
AcDbSymbolTableRecord
100
AcDbBlockTableRecord
  2
SW_CENTERMARKSYMBOL_0
340
0
102
{BLKREFS
331
3EC
102
}
  0
BLOCK_RECORD
  5
3ED
330
1
100
AcDbSymbolTableRecord
100
AcDbBlockTableRecord
  2
SW_CENTERMARKSYMBOL_1
340
0
102
{BLKREFS
331
400
102
}
  0
BLOCK_RECORD
  5
401
330
1
100
AcDbSymbolTableRecord
100
AcDbBlockTableRecord
  2
SW_CENTERMARKSYMBOL_2
340
0
102
{BLKREFS
331
414
102
}
  0
BLOCK_RECORD
  5
415
330
1
100
AcDbSymbolTableRecord
100
AcDbBlockTableRecord
  2
SW_CENTERMARKSYMBOL_3
340
0
102
{BLKREFS
331
428
102
}
  0
ENDTAB
  0
ENDSEC
  0
SECTION
  2
BLOCKS
  0
BLOCK
  5
20
330
1F
100
AcDbEntity
  8
0
100
AcDbBlockBegin
  2
*Model_Space
 70
     0
 10
0.0
 20
0.0
 30
0.0
  3
*Model_Space
  1

  0
ENDBLK
  5
21
330
1F
100
AcDbEntity
  8
0
100
AcDbBlockEnd
  0
BLOCK
  5
1C
330
1B
100
AcDbEntity
 67
     1
  8
0
100
AcDbBlockBegin
  2
*Paper_Space
 70
     0
 10
0.0
 20
0.0
 30
0.0
  3
*Paper_Space
  1

  0
ENDBLK
  5
1D
330
1B
100
AcDbEntity
 67
     1
  8
0
100
AcDbBlockEnd
  0
BLOCK
  5
24
330
23
100
AcDbEntity
  8
0
100
AcDbBlockBegin
  2
*Paper_Space0
 70
     0
 10
0.0
 20
0.0
 30
0.0
  3
*Paper_Space0
  1

  0
ENDBLK
  5
25
330
23
100
AcDbEntity
  8
0
100
AcDbBlockEnd
  0
BLOCK
  5
7C
330
7B
100
AcDbEntity
  8
0
100
AcDbBlockBegin
  2
ACO-Logo
 70
     0
 10
0.0
 20
0.0
 30
0.0
  3
ACO-Logo
  1

  0
ARC
  5
7E
330
7B
100
AcDbEntity
  8
0
  6
Continuous
 62
   179
370
    18
100
AcDbCircle
 10
80.3853261169
 20
4.9940995715
 30
0.0
 40
0.3000000000000441
100
AcDbArc
 50
181.9349323096
 51
274.6062978506
  0
ARC
  5
7F
330
7B
100
AcDbEntity
  8
0
  6
Continuous
 62
   179
370
    18
100
AcDbCircle
 10
81.2359083165
 20
2.1946665956
 30
0.0
 40
1.000000000000021
100
AcDbArc
 50
221.4087409628
 51
276.0561297228
  0
ARC
  5
80
330
7B
100
AcDbEntity
  8
0
  6
Continuous
 62
   179
370
    18
100
AcDbCircle
 10
79.1360017163
 20
3.654242048
 30
0.0
 40
0.300000000000004
100
AcDbArc
 50
181.2730300201
 51
274.4996077095
  0
ARC
  5
81
330
7B
100
AcDbEntity
  8
0
  6
Continuous
 62
   179
370
    18
100
AcDbCircle
 10
78.7699033484
 20
3.2873137407
 30
0.0
 40
0.4000000000000358
100
AcDbArc
 50
221.0090869016
 51
274.5606296317
  0
ARC
  5
82
330
7B
100
AcDbEntity
  8
0
  6
Continuous
 62
   179
370
    18
100
AcDbCircle
 10
91.2333953062
 20
4.6062442307
 30
0.0
 40
0.3000000000000493
100
AcDbArc
 50
274.4996077095
 51
3.7249371334
  0
ARC
  5
83
330
7B
100
AcDbEntity
  8
0
  6
Continuous
 62
   179
370
    18
100
AcDbCircle
 10
81.5287571045
 20
9.7648973508
 30
0.0
 40
1.00000000000002
100
AcDbArc
 50
93.1134387481
 51
181.9414863909
  0
ARC
  5
84
330
7B
100
AcDbEntity
  8
0
  6
Continuous
 62
   179
370
    18
100
AcDbCircle
 10
81.6051675115
 20
7.5107903456
 30
0.0
 40
1.0
100
AcDbArc
 50
181.9414863909
 51
274.398705355
  0
ARC
  5
85
330
7B
100
AcDbEntity
  8
0
  6
Continuous
 62
   179
370
    18
100
AcDbCircle
 10
80.1506905656
 20
11.9393118923
 30
0.0
 40
0.300000000000045
100
AcDbArc
 50
93.0418421566
 51
181.9349323096
  0
ARC
  5
86
330
7B
100
AcDbEntity
  8
0
  6
Continuous
 62
   179
370
    18
100
AcDbCircle
 10
78.1879722102
 20
12.3499352608
 30
0.0
 40
0.7999999999953393
100
AcDbArc
 50
92.6995697565
 51
148.2554209065
  0
ARC
  5
87
330
7B
100
AcDbEntity
  8
0
  6
Continuous
 62
   179
370
    18
100
AcDbCircle
 10
78.930862229
 20
12.8855189761
 30
0.0
 40
0.3000000000000031
100
AcDbArc
 50
92.6995697565
 51
181.2730300201
  0
ARC
  5
88
330
7B
100
AcDbEntity
  8
0
  6
Continuous
 62
   179
370
    18
100
AcDbCircle
 10
82.327743407
 20
9.8083568568
 30
0.0
 40
1.000000000000034
100
AcDbArc
 50
1.9414863909
 51
93.1134387481
  0
ARC
  5
89
330
7B
100
AcDbEntity
  8
0
  6
Continuous
 62
   179
370
    18
100
AcDbCircle
 10
81.5287571045
 20
9.7648973508
 30
0.0
 40
0.3625000000000009
100
AcDbArc
 50
93.1134387481
 51
181.9414863909
  0
ARC
  5
8A
330
7B
100
AcDbEntity
  8
0
  6
Continuous
 62
   179
370
    18
100
AcDbCircle
 10
82.327743407
 20
9.8083568568
 30
0.0
 40
0.3625000000000146
100
AcDbArc
 50
1.9414863909
 51
93.1134387481
  0
ARC
  5
8B
330
7B
100
AcDbEntity
  8
0
  6
Continuous
 62
   179
370
    18
100
AcDbCircle
 10
82.4035451983
 20
7.5722040138
 30
0.0
 40
1.000000000000008
100
AcDbArc
 50
274.398705355
 51
1.9414863909
  0
ARC
  5
8C
330
7B
100
AcDbEntity
  8
0
  6
Continuous
 62
   179
370
    18
100
AcDbCircle
 10
82.4035451983
 20
7.5722040138
 30
0.0
 40
0.3625000000000068
100
AcDbArc
 50
274.398705355
 51
1.9414863909
  0
ARC
  5
8D
330
7B
100
AcDbEntity
  8
0
  6
Continuous
 62
   179
370
    18
100
AcDbCircle
 10
81.6051675115
 20
7.5107903456
 30
0.0
 40
0.3625000000000111
100
AcDbArc
 50
181.9414863909
 51
274.398705355
  0
ARC
  5
8E
330
7B
100
AcDbEntity
  8
0
  6
Continuous
 62
   179
370
    18
100
AcDbCircle
 10
88.825822761
 20
8.0662148274
 30
0.0
 40
0.9999999999999997
100
AcDbArc
 50
274.398705355
 51
2.6541955134
  0
ARC
  5
8F
330
7B
100
AcDbEntity
  8
0
  6
Continuous
 62
   179
370
    18
100
AcDbCircle
 10
90.1578295581
 20
5.7814576687
 30
0.0
 40
0.3000000000000043
100
AcDbArc
 50
274.6062978507
 51
2.5147526475
  0
ARC
  5
90
330
7B
100
AcDbEntity
  8
0
  6
Continuous
 62
   179
370
    18
100
AcDbCircle
 10
88.825822761
 20
8.0662148274
 30
0.0
 40
0.3625000000000083
100
AcDbArc
 50
274.398705355
 51
2.6541955134
  0
ARC
  5
91
330
7B
100
AcDbEntity
  8
0
  6
Continuous
 62
   179
370
    18
100
AcDbCircle
 10
88.728529747
 20
10.16496413
 30
0.0
 40
1.000000000000001
100
AcDbArc
 50
2.6541955134
 51
93.1134387481
  0
ARC
  5
92
330
7B
100
AcDbEntity
  8
0
  6
Continuous
 62
   179
370
    18
100
AcDbCircle
 10
88.728529747
 20
10.16496413
 30
0.0
 40
0.3625000000000085
100
AcDbArc
 50
2.6541955134
 51
93.1134387481
  0
ARC
  5
93
330
7B
100
AcDbEntity
  8
0
  6
Continuous
 62
   179
370
    18
100
AcDbCircle
 10
89.8647121341
 20
12.455515937
 30
0.0
 40
0.2999999999999984
100
AcDbArc
 50
2.5147526475
 51
93.0418421566
  0
ARC
  5
94
330
7B
100
AcDbEntity
  8
0
  6
Continuous
 62
   179
370
    18
100
AcDbCircle
 10
90.6583795404
 20
13.4384863935
 30
0.0
 40
0.2999999999999911
100
AcDbArc
 50
3.7249371334
 51
92.6995697565
  0
CIRCLE
  5
95
330
7B
100
AcDbEntity
  8
0
  6
Continuous
 62
   179
370
    18
100
AcDbCircle
 10
15.7233972286
 20
6.4054930194
 30
0.0
 40
1.579500000000014
  0
CIRCLE
  5
96
330
7B
100
AcDbEntity
  8
0
  6
Continuous
 62
   179
370
    18
100
AcDbCircle
 10
15.7233972286
 20
6.4054930194
 30
0.0
 40
2.281499999999994
  0
ARC
  5
97
330
7B
100
AcDbEntity
  8
0
  6
Continuous
 62
   179
370
    18
100
AcDbCircle
 10
89.7681336026
 20
2.3106616691
 30
0.0
 40
0.098384530246548
100
AcDbArc
 50
332.3802627259
 51
4.9765441602
  0
ARC
  5
98
330
7B
100
AcDbEntity
  8
0
  6
Continuous
 62
   179
370
    18
100
AcDbCircle
 10
89.6886560089
 20
2.3522464185
 30
0.0
 40
0.1880839130754018
100
AcDbArc
 50
303.690067526
 51
332.3802627258
  0
ARC
  5
99
330
7B
100
AcDbEntity
  8
0
  6
Continuous
 62
   179
370
    18
100
AcDbCircle
 10
89.4849700869
 20
2.6577753016
 30
0.0
 40
0.5552839311631531
100
AcDbArc
 50
287.108652213
 51
303.690067526
  0
ARC
  5
9A
330
7B
100
AcDbEntity
  8
0
  6
Continuous
 62
   179
370
    18
100
AcDbCircle
 10
88.0513010646
 20
7.3154864882
 30
0.0
 40
5.428648309393203
100
AcDbArc
 50
285.2551187031
 51
287.108652213
  0
ARC
  5
9B
330
7B
100
AcDbEntity
  8
0
  6
Continuous
 62
   179
370
    18
100
AcDbCircle
 10
89.1317168954
 20
3.3539617753
 30
0.0
 40
1.322436378825653
100
AcDbArc
 50
281.4991866428
 51
285.255118703
  0
ARC
  5
9C
330
7B
100
AcDbEntity
  8
0
  6
Continuous
 62
   179
370
    18
100
AcDbCircle
 10
89.3198255509
 20
2.4293110075
 30
0.0
 40
0.3788454141584939
100
AcDbArc
 50
279.1917900003
 51
281.499186643
  0
ARC
  5
9D
330
7B
100
AcDbEntity
  8
0
  6
Continuous
 62
   179
370
    18
100
AcDbCircle
 10
89.0487250788
 20
4.1046569124
 30
0.0
 40
2.07598399629105
100
AcDbArc
 50
277.7634675038
 51
279.1917900002
  0
ARC
  5
9E
330
7B
100
AcDbEntity
  8
0
  6
Continuous
 62
   179
370
    18
100
AcDbCircle
 10
9.2588909915
 20
6.4054930194
 30
0.0
 40
1.579500000000074
100
AcDbArc
 50
31.0558004991
 51
330.0
  0
ARC
  5
9F
330
7B
100
AcDbEntity
  8
0
  6
Continuous
 62
   179
370
    18
100
AcDbCircle
 10
9.2588909915
 20
6.4054930194
 30
0.0
 40
2.281500000000107
100
AcDbArc
 50
30.7309172659
 51
330.0
  0
ARC
  5
A0
330
7B
100
AcDbEntity
  8
0
  6
Continuous
 62
   179
370
    18
100
AcDbCircle
 10
6.1288847544
 20
4.0685261312
 30
0.0
 40
4.914000000000307
100
AcDbArc
 50
172.3058370354
 51
179.7113029221
  0
ARC
  5
A1
330
7B
100
AcDbEntity
  8
0
  6
Continuous
 62
   179
370
    18
100
AcDbCircle
 10
-0.5401152456
 20
4.0685261312
 30
0.0
 40
4.91400000000019
100
AcDbArc
 50
0.2886970779
 51
7.6941629646
  0
ARC
  5
A2
330
7B
100
AcDbEntity
  8
0
  6
Continuous
 62
   179
370
    18
100
AcDbCircle
 10
-0.5401152456
 20
4.0685261312
 30
0.0
 40
5.616000000000127
100
AcDbArc
 50
0.2526096926
 51
53.5764263577
  0
ARC
  5
A3
330
7B
100
AcDbEntity
  8
0
  6
Continuous
 62
   179
370
    18
100
AcDbCircle
 10
6.1288847544
 20
4.0685261312
 30
0.0
 40
5.61600000000074
100
AcDbArc
 50
126.4235736423
 51
179.7473903073
  0
ARC
  5
A4
330
7B
100
AcDbEntity
  8
0
  6
Continuous
 62
   179
370
    18
100
AcDbCircle
 10
-0.5401152456
 20
4.0685261312
 30
0.0
 40
4.914000000000161
100
AcDbArc
 50
16.0658750272
 51
47.2678899574
  0
ARC
  5
A5
330
7B
100
AcDbEntity
  8
0
  6
Continuous
 62
   179
370
    18
100
AcDbCircle
 10
6.1288847544
 20
4.0685261312
 30
0.0
 40
4.914000000000584
100
AcDbArc
 50
132.7321100426
 51
163.9341249728
  0
LINE
  5
A6
330
7B
100
AcDbEntity
  8
0
  6
Continuous
 62
   179
370
    18
100
AcDbLine
 10
78.8017089389
 20
2.8885802402
 30
0.0
 11
90.7982178739
 21
3.8455002136
 31
0.0
  0
LINE
  5
A7
330
7B
100
AcDbEntity
  8
0
  6
Continuous
 62
   179
370
    18
100
AcDbLine
 10
76.6545490427
 20
5.8693097374
 30
0.0
 11
78.0344191726
 21
3.5235305166
 31
0.0
  0
LINE
  5
A8
330
7B
100
AcDbEntity
  8
0
  6
Continuous
 62
   179
370
    18
100
AcDbLine
 10
91.5327615373
 20
4.6257342197
 30
0.0
 11
90.9577457715
 21
13.4579763825
 31
0.0
  0
LINE
  5
A9
330
7B
100
AcDbEntity
  8
0
  6
Continuous
 62
   179
370
    18
100
AcDbLine
 10
78.6309362756
 20
12.8788539549
 30
0.0
 11
78.8360757629
 21
3.6475770268
 31
0.0
  0
LINE
  5
AA
330
7B
100
AcDbEntity
  8
0
  6
Continuous
 62
   179
370
    18
100
AcDbLine
 10
80.4094186633
 20
4.6950685544
 30
0.0
 11
90.1819221045
 21
5.4824266516
 31
0.0
  0
LINE
  5
AB
330
7B
100
AcDbEntity
  8
0
  6
Continuous
 62
   179
370
    18
100
AcDbLine
 10
79.1595373973
 20
3.3551666867
 30
0.0
 11
91.2569309872
 21
4.3071688694
 31
0.0
  0
LINE
  5
AC
330
7B
100
AcDbEntity
  8
0
  6
Continuous
 62
   179
370
    18
100
AcDbLine
 10
79.2585043218
 20
2.925017226
 30
0.0
 11
80.4858981444
 21
1.533240302
 31
0.0
  0
LINE
  5
AD
330
7B
100
AcDbEntity
  8
0
  6
Continuous
 62
   179
370
    18
100
AcDbLine
 10
78.0344191726
 20
3.5235305166
 30
0.0
 11
78.3638740472
 21
3.1446574108
 31
0.0
  0
LINE
  5
AE
330
7B
100
AcDbEntity
  8
0
  6
Continuous
 62
   179
370
    18
100
AcDbLine
 10
78.3638740472
 20
3.1446574108
 30
0.0
 11
78.4680611395
 21
3.0248422547
 31
0.0
  0
LINE
  5
AF
330
7B
100
AcDbEntity
  8
0
  6
Continuous
 62
   179
370
    18
100
AcDbLine
 10
81.3414110113
 20
1.2002475785
 30
0.0
 11
89.3291569519
 21
2.0477010263
 31
0.0
  0
LINE
  5
B0
330
7B
100
AcDbEntity
  8
0
  6
Continuous
 62
   179
370
    18
100
AcDbLine
 10
89.8661472522
 20
2.5197759309
 30
0.0
 11
89.8661472522
 21
2.3090867337
 31
0.0
  0
LINE
  5
B1
330
7B
100
AcDbEntity
  8
0
  6
Continuous
 62
   179
370
    18
100
AcDbLine
 10
88.676842368
 20
3.6762854359
 30
0.0
 11
89.6713239345
 21
2.7875997807
 31
0.0
  0
LINE
  5
B2
330
7B
100
AcDbEntity
  8
0
  6
Continuous
 62
   179
370
    18
100
AcDbLine
 10
89.6713239345
 20
2.7875997807
 30
0.0
 11
89.7459749087
 21
2.7242700694
 31
0.0
  0
LINE
  5
B3
330
7B
100
AcDbEntity
  8
0
  6
Continuous
 62
   179
370
    18
100
AcDbLine
 10
90.7982178739
 20
3.8455002136
 30
0.0
 11
91.3961615969
 21
4.3514525945
 31
0.0
  0
LINE
  5
B4
330
7B
100
AcDbEntity
  8
0
  6
Continuous
 62
   179
370
    18
100
AcDbLine
 10
90.6442498554
 20
13.7381534621
 30
0.0
 11
78.1502930503
 21
13.1490474438
 31
0.0
  0
LINE
  5
B5
330
7B
100
AcDbEntity
  8
0
  6
Continuous
 62
   179
370
    18
100
AcDbLine
 10
80.1347709981
 20
12.2388892068
 30
0.0
 11
89.8487925667
 21
12.7550932515
 31
0.0
  0
LINE
  5
B6
330
7B
100
AcDbEntity
  8
0
  6
Continuous
 62
   179
370
    18
100
AcDbLine
 10
76.4935641943
 20
11.7567556248
 30
0.0
 11
76.6545490427
 21
5.8693097374
 31
0.0
  0
LINE
  5
B7
330
7B
100
AcDbEntity
  8
0
  6
Continuous
 62
   179
370
    18
100
AcDbLine
 10
79.8508616208
 20
11.929182536
 30
0.0
 11
80.0854971721
 21
4.9839702153
 31
0.0
  0
LINE
  5
B8
330
7B
100
AcDbEntity
  8
0
  6
Continuous
 62
   179
370
    18
100
AcDbLine
 10
80.5293311574
 20
9.7310185051
 30
0.0
 11
80.6057415643
 21
7.4769115
 31
0.0
  0
LINE
  5
B9
330
7B
100
AcDbEntity
  8
0
  6
Continuous
 62
   179
370
    18
100
AcDbLine
 10
77.507650604
 20
12.7708420346
 30
0.0
 11
76.4935641943
 21
11.7567556248
 31
0.0
  0
LINE
  5
BA
330
7B
100
AcDbEntity
  8
0
  6
Continuous
 62
   179
370
    18
100
AcDbLine
 10
86.8848195129
 20
11.0661568594
 30
0.0
 11
88.6742167283
 21
11.1634880887
 31
0.0
  0
LINE
  5
BB
330
7B
100
AcDbEntity
  8
0
  6
Continuous
 62
   179
370
    18
100
AcDbLine
 10
87.0766213517
 20
6.9287171941
 30
0.0
 11
88.90708891
 21
7.0695223909
 31
0.0
  0
LINE
  5
BC
330
7B
100
AcDbEntity
  8
0
  6
Continuous
 62
   179
370
    18
100
AcDbLine
 10
87.6830038473
 20
7.6147347768
 30
0.0
 11
88.8536252418
 21
7.7047825764
 31
0.0
  0
LINE
  5
BD
330
7B
100
AcDbEntity
  8
0
  6
Continuous
 62
   179
370
    18
100
AcDbLine
 10
87.5509212094
 20
10.4639459651
 30
0.0
 11
88.7088412777
 21
10.5269290651
 31
0.0
  0
LINE
  5
BE
330
7B
100
AcDbEntity
  8
0
  6
Continuous
 62
   179
370
    18
100
AcDbLine
 10
87.0766218384
 20
6.9287066941
 30
0.0
 11
86.8848195129
 21
11.0661568594
 31
0.0
  0
LINE
  5
BF
330
7B
100
AcDbEntity
  8
0
  6
Continuous
 62
   179
370
    18
100
AcDbLine
 10
83.7004598825
 20
6.6667911093
 30
0.0
 11
84.5054929504
 21
10.9267193262
 31
0.0
  0
LINE
  5
C0
330
7B
100
AcDbEntity
  8
0
  6
Continuous
 62
   179
370
    18
100
AcDbLine
 10
85.3543248406
 20
10.9728900984
 30
0.0
 11
86.4940946704
 21
6.8816860929
 31
0.0
  0
LINE
  5
C1
330
7B
100
AcDbEntity
  8
0
  6
Continuous
 62
   179
370
    18
100
AcDbLine
 10
84.9728575427
 20
9.9667192298
 30
0.0
 11
85.4540299774
 21
8.2395506903
 31
0.0
  0
LINE
  5
C2
330
7B
100
AcDbEntity
  8
0
  6
Continuous
 62
   179
370
    18
100
AcDbLine
 10
84.6363094629
 20
8.1858350416
 30
0.0
 11
84.9728575427
 21
9.9667192298
 31
0.0
  0
LINE
  5
C3
330
7B
100
AcDbEntity
  8
0
  6
Continuous
 62
   179
370
    18
100
AcDbLine
 10
87.6830038473
 20
7.6147347768
 30
0.0
 11
87.5509212094
 21
10.4639459651
 31
0.0
  0
LINE
  5
C4
330
7B
100
AcDbEntity
  8
0
  6
Continuous
 62
   179
370
    18
100
AcDbLine
 10
84.6363094629
 20
8.1858350416
 30
0.0
 11
85.4540299774
 21
8.2395506903
 31
0.0
  0
LINE
  5
C5
330
7B
100
AcDbEntity
  8
0
  6
Continuous
 62
   179
370
    18
100
AcDbLine
 10
84.5140586807
 20
7.5389304886
 30
0.0
 11
85.6288154243
 21
7.6121582976
 31
0.0
  0
LINE
  5
C6
330
7B
100
AcDbEntity
  8
0
  6
Continuous
 62
   179
370
    18
100
AcDbLine
 10
84.3588137958
 20
6.717433718
 30
0.0
 11
84.5140586807
 21
7.5389304886
 31
0.0
  0
LINE
  5
C7
330
7B
100
AcDbEntity
  8
0
  6
Continuous
 62
   179
370
    18
100
AcDbLine
 10
81.6818640104
 20
6.5137358601
 30
0.0
 11
82.4802416972
 21
6.5751495283
 31
0.0
  0
LINE
  5
C8
330
7B
100
AcDbEntity
  8
0
  6
Continuous
 62
   179
370
    18
100
AcDbLine
 10
81.6329699923
 20
7.1493580946
 30
0.0
 11
82.4313476791
 21
7.2107717628
 31
0.0
  0
LINE
  5
C9
330
7B
100
AcDbEntity
  8
0
  6
Continuous
 62
   179
370
    18
100
AcDbLine
 10
83.7004598825
 20
6.6667911093
 30
0.0
 11
84.3588137958
 21
6.717433718
 31
0.0
  0
LINE
  5
CA
330
7B
100
AcDbEntity
  8
0
  6
Continuous
 62
   179
370
    18
100
AcDbLine
 10
82.7059483815
 20
9.3512024135
 30
0.0
 11
83.3423973297
 21
9.3930104243
 31
0.0
  0
LINE
  5
CB
330
7B
100
AcDbEntity
  8
0
  6
Continuous
 62
   179
370
    18
100
AcDbLine
 10
82.7491656358
 20
8.0762934118
 30
0.0
 11
83.385614584
 21
8.1181014226
 31
0.0
  0
LINE
  5
CC
330
7B
100
AcDbEntity
  8
0
  6
Continuous
 62
   179
370
    18
100
AcDbLine
 10
81.1664651987
 20
9.7526162692
 30
0.0
 11
81.2428756056
 21
7.4985092641
 31
0.0
  0
LINE
  5
CD
330
7B
100
AcDbEntity
  8
0
  6
Continuous
 62
   179
370
    18
100
AcDbLine
 10
82.6900353128
 20
9.8206379383
 30
0.0
 11
82.7052632884
 21
9.3714126602
 31
0.0
  0
LINE
  5
CE
330
7B
100
AcDbEntity
  8
0
  6
Continuous
 62
   179
370
    18
100
AcDbLine
 10
82.7491656358
 20
8.0762934118
 30
0.0
 11
82.7658371041
 21
7.5844850954
 31
0.0
  0
LINE
  5
CF
330
7B
100
AcDbEntity
  8
0
  6
Continuous
 62
   179
370
    18
100
AcDbLine
 10
83.3271693541
 20
9.8422357024
 30
0.0
 11
83.3423973297
 21
9.3930104243
 31
0.0
  0
LINE
  5
D0
330
7B
100
AcDbEntity
  8
0
  6
Continuous
 62
   179
370
    18
100
AcDbLine
 10
83.385614584
 20
8.1181014226
 30
0.0
 11
83.4029711454
 21
7.6060828595
 31
0.0
  0
LINE
  5
D1
330
7B
100
AcDbEntity
  8
0
  6
Continuous
 62
   179
370
    18
100
AcDbLine
 10
85.6288154243
 20
7.6121582976
 30
0.0
 11
85.8462022593
 21
6.8318482152
 31
0.0
  0
LINE
  5
D2
330
7B
100
AcDbEntity
  8
0
  6
Continuous
 62
   179
370
    18
100
AcDbLine
 10
85.8462022593
 20
6.8318482152
 30
0.0
 11
86.4940946704
 21
6.8816860929
 31
0.0
  0
LINE
  5
D3
330
7B
100
AcDbEntity
  8
0
  6
Continuous
 62
   179
370
    18
100
AcDbLine
 10
84.5054929504
 20
10.9267193262
 30
0.0
 11
85.3543248406
 21
10.9728900984
 31
0.0
  0
LINE
  5
D4
330
7B
100
AcDbEntity
  8
0
  6
Continuous
 62
   179
370
    18
100
AcDbLine
 10
81.4744440858
 20
10.7634213094
 30
0.0
 11
82.2734303883
 21
10.8068808154
 31
0.0
  0
LINE
  5
D5
330
7B
100
AcDbEntity
  8
0
  6
Continuous
 62
   179
370
    18
100
AcDbLine
 10
81.5090686352
 20
10.1268622858
 30
0.0
 11
82.3080549377
 21
10.1703217918
 31
0.0
  0
LINE
  5
D6
330
7B
100
AcDbEntity
  8
0
  6
Continuous
 62
   179
370
    18
100
AcDbLine
 10
90.4575406452
 20
5.7946206556
 30
0.0
 11
90.1644232213
 21
12.4686789239
 31
0.0
  0
LINE
  5
D7
330
7B
100
AcDbEntity
  8
0
  6
Continuous
 62
   179
370
    18
100
AcDbLine
 10
89.8247499755
 20
8.1125227115
 30
0.0
 11
89.7274569615
 21
10.2112720142
 31
0.0
  0
LINE
  5
D8
330
7B
100
AcDbEntity
  8
0
  6
Continuous
 62
   179
370
    18
100
AcDbLine
 10
89.1879338763
 20
8.0830014354
 30
0.0
 11
89.0906408622
 21
10.181750738
 31
0.0
  0
LINE
  5
D9
330
7B
100
AcDbEntity
  8
0
  6
Continuous
 62
   179
370
    18
100
AcDbLine
 10
89.7459749087
 20
2.7242700694
 30
0.0
 11
89.7974962577
 21
2.6659765769
 31
0.0
  0
LINE
  5
DA
330
7B
100
AcDbEntity
  8
0
  6
Continuous
 62
   179
370
    18
100
AcDbLine
 10
89.7974962577
 20
2.6659765769
 30
0.0
 11
89.8351851379
 21
2.60192886
 31
0.0
  0
LINE
  5
DB
330
7B
100
AcDbEntity
  8
0
  6
Continuous
 62
   179
370
    18
100
AcDbLine
 10
89.8351851379
 20
2.60192886
 30
0.0
 11
89.8661472522
 21
2.5197759309
 31
0.0
  0
LINE
  5
DC
330
7B
100
AcDbEntity
  8
0
  6
Continuous
 62
   179
370
    18
100
AcDbLine
 10
10.6119938288
 20
7.2203138351
 30
0.0
 11
11.2200151261
 21
7.5713550947
 31
0.0
  0
LINE
  5
DD
330
7B
100
AcDbEntity
  8
0
  6
Continuous
 62
   179
370
    18
100
AcDbLine
 10
11.2347279503
 20
5.2647430194
 30
0.0
 11
10.6267781168
 21
5.6157430194
 31
0.0
  0
LINE
  5
DE
330
7B
100
AcDbEntity
  8
0
  6
Continuous
 62
   179
370
    18
100
AcDbLine
 10
6.4645062371
 20
16.1712617198
 30
0.0
 11
6.4645062371
 21
2.9364593988
 31
0.0
  0
LINE
  5
DF
330
7B
100
AcDbEntity
  8
0
  6
Continuous
 62
   179
370
    18
100
AcDbLine
 10
6.4645062371
 20
2.9364593988
 30
0.0
 11
12.0532757459
 21
2.9364593988
 31
0.0
  0
LINE
  5
E0
330
7B
100
AcDbEntity
  8
0
  6
Continuous
 62
   179
370
    18
100
AcDbLine
 10
12.0532757459
 20
2.9364593988
 30
0.0
 11
12.0532757459
 21
16.1712617198
 31
0.0
  0
LINE
  5
E1
330
7B
100
AcDbEntity
  8
0
  6
Continuous
 62
   179
370
    18
100
AcDbLine
 10
12.0532757459
 20
16.1712617198
 30
0.0
 11
6.4645062371
 21
16.1712617198
 31
0.0
  0
LINE
  5
E2
330
7B
100
AcDbEntity
  8
0
  6
Continuous
 62
   179
370
    18
100
AcDbLine
 10
0.0
 20
16.1712617198
 30
0.0
 11
0.0
 21
2.9364593988
 31
0.0
  0
LINE
  5
E3
330
7B
100
AcDbEntity
  8
0
  6
Continuous
 62
   179
370
    18
100
AcDbLine
 10
0.0
 20
2.9364593988
 30
0.0
 11
5.5887695089
 21
2.9364593988
 31
0.0
  0
LINE
  5
E4
330
7B
100
AcDbEntity
  8
0
  6
Continuous
 62
   179
370
    18
100
AcDbLine
 10
5.5887695089
 20
2.9364593988
 30
0.0
 11
5.5887695089
 21
16.1712617198
 31
0.0
  0
LINE
  5
E5
330
7B
100
AcDbEntity
  8
0
  6
Continuous
 62
   179
370
    18
100
AcDbLine
 10
5.5887695089
 20
16.1712617198
 30
0.0
 11
0.0
 21
16.1712617198
 31
0.0
  0
LINE
  5
E6
330
7B
100
AcDbEntity
  8
0
  6
Continuous
 62
   179
370
    18
100
AcDbLine
 10
1.2591262606
 20
4.7264381407
 30
0.0
 11
4.3296432482
 21
4.7264381407
 31
0.0
  0
LINE
  5
E7
330
7B
100
AcDbEntity
  8
0
  6
Continuous
 62
   179
370
    18
100
AcDbLine
 10
4.3738223747
 20
4.0932862697
 30
0.0
 11
5.0758301722
 21
4.0932862697
 31
0.0
  0
LINE
  5
E8
330
7B
100
AcDbEntity
  8
0
  6
Continuous
 62
   179
370
    18
100
AcDbLine
 10
0.5129393366
 20
4.0932862697
 30
0.0
 11
1.2149471342
 21
4.0932862697
 31
0.0
  0
LINE
  5
E9
330
7B
100
AcDbEntity
  8
0
  6
Continuous
 62
   179
370
    18
100
AcDbLine
 10
4.1819643097
 20
5.4284381407
 30
0.0
 11
1.4068051992
 21
5.4284381407
 31
0.0
  0
LINE
  5
EA
330
7B
100
AcDbEntity
  8
0
  6
Continuous
 62
   179
370
    18
100
AcDbLine
 10
18.517781983
 20
16.1712617198
 30
0.0
 11
18.517781983
 21
2.9364593988
 31
0.0
  0
LINE
  5
EB
330
7B
100
AcDbEntity
  8
0
  6
Continuous
 62
   179
370
    18
100
AcDbLine
 10
18.517781983
 20
2.9364593988
 30
0.0
 11
12.9290124742
 21
2.9364593988
 31
0.0
  0
LINE
  5
EC
330
7B
100
AcDbEntity
  8
0
  6
Continuous
 62
   179
370
    18
100
AcDbLine
 10
12.9290124742
 20
2.9364593988
 30
0.0
 11
12.9290124742
 21
16.1712617198
 31
0.0
  0
LINE
  5
ED
330
7B
100
AcDbEntity
  8
0
  6
Continuous
 62
   179
370
    18
100
AcDbLine
 10
12.9290124742
 20
16.1712617198
 30
0.0
 11
18.517781983
 21
16.1712617198
 31
0.0
  0
MTEXT
  5
EF
330
7B
100
AcDbEntity
  8
0
  6
Continuous
 62
     7
370
     0
100
AcDbMText
 10
9.3686441161
 20
2.2554789353
 30
0.0
 40
2.0
 41
0.0
 71
     2
 72
     1
  1
www.aco.ch
  7
SLDTEXTSTYLE0
 73
     1
 44
1.0
  0
MTEXT
  5
F0
330
7B
100
AcDbEntity
  8
0
  6
Continuous
 62
     7
370
     0
100
AcDbMText
 10
46.980584205
 20
16.6131199634
 30
0.0
 40
3.0
 41
0.0
 71
     2
 72
     1
  1
ACO Passavant AG
  7
SLDTEXTSTYLE0
 73
     1
 44
1.0
  0
INSERT
  5
F9
330
7B
100
AcDbEntity
  8
0
  6
Continuous
 62
     7
370
     0
100
AcDbBlockReference
  2
SW_NOTE_0
 10
28.8863479825
 20
8.6365742194
 30
0.0
  0
ENDBLK
  5
7D
330
7B
100
AcDbEntity
  8
0
100
AcDbBlockEnd
  0
BLOCK
  5
F2
330
F1
100
AcDbEntity
  8
0
100
AcDbBlockBegin
  2
SW_NOTE_0
 70
     0
 10
0.0
 20
0.0
 30
0.0
  3
SW_NOTE_0
  1

  0
MTEXT
  5
F4
330
F1
100
AcDbEntity
  8
0
  6
Continuous
 62
     0
370
     0
100
AcDbMText
 10
0.0
 20
2.5781354795
 30
0.0
 40
2.0
 41
0.0
 71
     1
 72
     1
  1
Industrie Kleinzaun
  7
SLDTEXTSTYLE0
 73
     1
 44
1.0
  0
MTEXT
  5
F5
330
F1
100
AcDbEntity
  8
0
  6
Continuous
 62
     0
370
     0
100
AcDbMText
 10
0.0
 20
-0.4218645465
 30
0.0
 40
2.0
 41
0.0
 71
     1
 72
     1
  1
CH-8754 Netstal
  7
SLDTEXTSTYLE0
 73
     1
 44
1.0
  0
MTEXT
  5
F7
330
F1
100
AcDbEntity
  8
0
  6
Continuous
 62
     0
370
     0
100
AcDbMText
 10
0.0
 20
-3.4218645726
 30
0.0
 40
2.0
 41
0.0
 71
     1
 72
     1
  1
Tel. 055 / 645 53 00  -  Fax 055 / 645 53 10
  7
SLDTEXTSTYLE1
 73
     1
 44
1.0
  0
MTEXT
  5
F8
330
F1
100
AcDbEntity
  8
0
  6
Continuous
 62
     0
370
     0
100
AcDbMText
 10
0.0
 20
-6.4218645987
 30
0.0
 40
2.0
 41
0.0
 71
     1
 72
     1
  1
E-Mail: aco@aco.ch
  7
SLDTEXTSTYLE0
 73
     1
 44
1.0
  0
ENDBLK
  5
F3
330
F1
100
AcDbEntity
  8
0
100
AcDbBlockEnd
  0
BLOCK
  5
173
330
172
100
AcDbEntity
  8
0
100
AcDbBlockBegin
  2
SW_NOTE_1
 70
     0
 10
0.0
 20
0.0
 30
0.0
  3
SW_NOTE_1
  1

  0
MTEXT
  5
175
330
172
100
AcDbEntity
  8
0
  6
Continuous
 62
     0
370
     0
100
AcDbMText
 10
0.0
 20
1.9336016097
 30
0.0
 40
1.5
 41
0.0
 71
     1
 72
     1
  1
Diese Zeichnung darf weder kopiert
  7
SLDTEXTSTYLE0
 73
     1
 44
1.0
  0
MTEXT
  5
176
330
172
100
AcDbEntity
  8
0
  6
Continuous
 62
     0
370
     0
100
AcDbMText
 10
0.0
 20
-0.5663983345
 30
0.0
 40
1.5
 41
0.0
 71
     1
 72
     1
  1
noch dritten Personen, insbesondere
  7
SLDTEXTSTYLE0
 73
     1
 44
1.0
  0
MTEXT
  5
177
330
172
100
AcDbEntity
  8
0
  6
Continuous
 62
     0
370
     0
100
AcDbMText
 10
0.0
 20
-3.0663982786
 30
0.0
 40
1.5
 41
0.0
 71
     1
 72
     1
  1
zum Zweck anderweitiger Benutzung
  7
SLDTEXTSTYLE0
 73
     1
 44
1.0
  0
MTEXT
  5
178
330
172
100
AcDbEntity
  8
0
  6
Continuous
 62
     0
370
     0
100
AcDbMText
 10
0.0
 20
-5.5663982227
 30
0.0
 40
1.5
 41
0.0
 71
     1
 72
     1
  1
mitgeteilt werden und bleibt unser
  7
SLDTEXTSTYLE0
 73
     1
 44
1.0
  0
MTEXT
  5
179
330
172
100
AcDbEntity
  8
0
  6
Continuous
 62
     0
370
     0
100
AcDbMText
 10
0.0
 20
-8.0663981668
 30
0.0
 40
1.5
 41
0.0
 71
     1
 72
     1
  1
Eigentum.
  7
SLDTEXTSTYLE0
 73
     1
 44
1.0
  0
ENDBLK
  5
174
330
172
100
AcDbEntity
  8
0
100
AcDbBlockEnd
  0
BLOCK
  5
20B
330
20A
100
AcDbEntity
  8
0
100
AcDbBlockBegin
  2
_D
 70
     0
 10
0.0
 20
0.0
 30
0.0
  3
_D
  1

  0
SOLID
  5
20D
330
20A
100
AcDbEntity
  8
0
  6
Continuous
 62
     7
370
    18
100
AcDbTrace
 10
87.1883814263
 20
257.8035229734
 30
0.0
 11
90.6883814263
 21
257.2650614349
 31
0.0
 12
90.6883814263
 22
258.3419845118
 32
0.0
 13
90.6883814263
 23
258.3419845118
 33
0.0
  0
SOLID
  5
20E
330
20A
100
AcDbEntity
  8
0
  6
Continuous
 62
     7
370
    18
100
AcDbTrace
 10
191.4224834866
 20
257.8035229734
 30
0.0
 11
187.9224834866
 21
258.3419845118
 31
0.0
 12
187.9224834866
 22
257.2650614349
 32
0.0
 13
187.9224834866
 23
257.2650614349
 33
0.0
  0
LINE
  5
20F
330
20A
100
AcDbEntity
  8
0
  6
Continuous
 62
     7
370
    18
100
AcDbLine
 10
87.1883814263
 20
234.1959090822
 30
0.0
 11
87.1883814263
 21
258.8035229734
 31
0.0
  0
LINE
  5
210
330
20A
100
AcDbEntity
  8
0
  6
Continuous
 62
     7
370
    18
100
AcDbLine
 10
191.4224834866
 20
234.1959090822
 30
0.0
 11
191.4224834866
 21
258.8035229734
 31
0.0
  0
LINE
  5
211
330
20A
100
AcDbEntity
  8
0
  6
Continuous
 62
     7
370
    18
100
AcDbLine
 10
87.1883814263
 20
257.8035229734
 30
0.0
 11
191.4224834866
 21
257.8035229734
 31
0.0
  0
MTEXT
  5
212
330
20A
100
AcDbEntity
  8
0
  6
Continuous
 62
     7
370
    18
100
AcDbMText
 10
133.2898076055
 20
262.3152602954
 30
0.0
 40
3.5
 41
0.0
 71
     1
 72
     1
  1
104.2
  7
SLDTEXTSTYLE0
 73
     1
 44
1.0
  0
ENDBLK
  5
20C
330
20A
100
AcDbEntity
  8
0
100
AcDbBlockEnd
  0
BLOCK
  5
216
330
215
100
AcDbEntity
  8
0
100
AcDbBlockBegin
  2
_D_1
 70
     0
 10
0.0
 20
0.0
 30
0.0
  3
_D_1
  1

  0
SOLID
  5
218
330
215
100
AcDbEntity
  8
0
  6
Continuous
 62
     7
370
    18
100
AcDbTrace
 10
257.192608727
 20
194.5959090822
 30
0.0
 11
257.7310702655
 21
198.0959090822
 31
0.0
 12
256.6541471886
 22
198.0959090822
 32
0.0
 13
256.6541471886
 23
198.0959090822
 33
0.0
  0
SOLID
  5
219
330
215
100
AcDbEntity
  8
0
  6
Continuous
 62
     7
370
    18
100
AcDbTrace
 10
257.192608727
 20
259.0959090822
 30
0.0
 11
256.6541471886
 21
255.5959090822
 31
0.0
 12
257.7310702655
 22
255.5959090822
 32
0.0
 13
257.7310702655
 23
255.5959090822
 33
0.0
  0
LINE
  5
21A
330
215
100
AcDbEntity
  8
0
  6
Continuous
 62
     7
370
    18
100
AcDbLine
 10
213.4054324565
 20
194.5959090822
 30
0.0
 11
258.192608727
 21
194.5959090822
 31
0.0
  0
LINE
  5
21B
330
215
100
AcDbEntity
  8
0
  6
Continuous
 62
     7
370
    18
100
AcDbLine
 10
205.9054324565
 20
259.0959090822
 30
0.0
 11
258.192608727
 21
259.0959090822
 31
0.0
  0
LINE
  5
21C
330
215
100
AcDbEntity
  8
0
  6
Continuous
 62
     7
370
    18
100
AcDbLine
 10
257.192608727
 20
194.5959090822
 30
0.0
 11
257.192608727
 21
259.0959090822
 31
0.0
  0
MTEXT
  5
21D
330
215
100
AcDbEntity
  8
0
  6
Continuous
 62
     7
370
    18
100
AcDbMText
 10
252.680871405
 20
222.1670897536
 30
0.0
 40
3.5
 41
0.0
 71
     1
 72
     1
  1
64.5
  7
SLDTEXTSTYLE0
 11
7.273661547324616E-16
 21
1.0
 31
0.0
 73
     1
 44
1.0
  0
ENDBLK
  5
217
330
215
100
AcDbEntity
  8
0
100
AcDbBlockEnd
  0
BLOCK
  5
28A
330
289
100
AcDbEntity
  8
0
100
AcDbBlockBegin
  2
_D_2
 70
     0
 10
0.0
 20
0.0
 30
0.0
  3
_D_2
  1

  0
SOLID
  5
28C
330
289
100
AcDbEntity
  8
0
  6
Continuous
 62
     7
370
    18
100
AcDbTrace
 10
397.2563709677
 20
194.5959090822
 30
0.0
 11
397.7948325062
 21
198.0959090822
 31
0.0
 12
396.7179094293
 22
198.0959090822
 32
0.0
 13
396.7179094293
 23
198.0959090822
 33
0.0
  0
SOLID
  5
28D
330
289
100
AcDbEntity
  8
0
  6
Continuous
 62
     7
370
    18
100
AcDbTrace
 10
397.2563709677
 20
259.0959090822
 30
0.0
 11
396.7179094293
 21
255.5959090822
 31
0.0
 12
397.7948325062
 22
255.5959090822
 32
0.0
 13
397.7948325062
 23
255.5959090822
 33
0.0
  0
LINE
  5
28E
330
289
100
AcDbEntity
  8
0
  6
Continuous
 62
     7
370
    18
100
AcDbLine
 10
377.3563709677
 20
194.5959090822
 30
0.0
 11
398.2563709677
 21
194.5959090822
 31
0.0
  0
LINE
  5
28F
330
289
100
AcDbEntity
  8
0
  6
Continuous
 62
     7
370
    18
100
AcDbLine
 10
350.3563709677
 20
259.0959090822
 30
0.0
 11
398.2563709677
 21
259.0959090822
 31
0.0
  0
LINE
  5
290
330
289
100
AcDbEntity
  8
0
  6
Continuous
 62
     7
370
    18
100
AcDbLine
 10
397.2563709677
 20
194.5959090822
 30
0.0
 11
397.2563709677
 21
259.0959090822
 31
0.0
  0
MTEXT
  5
291
330
289
100
AcDbEntity
  8
0
  6
Continuous
 62
     7
370
    18
100
AcDbMText
 10
392.7446336457
 20
222.1670897536
 30
0.0
 40
3.5
 41
0.0
 71
     1
 72
     1
  1
64.5
  7
SLDTEXTSTYLE0
 11
3.391901413832837E-15
 21
1.0
 31
0.0
 73
     1
 44
1.0
  0
ENDBLK
  5
28B
330
289
100
AcDbEntity
  8
0
100
AcDbBlockEnd
  0
BLOCK
  5
294
330
293
100
AcDbEntity
  8
0
100
AcDbBlockBegin
  2
_D_3
 70
     0
 10
0.0
 20
0.0
 30
0.0
  3
_D_3
  1

  0
SOLID
  5
296
330
293
100
AcDbEntity
  8
0
  6
Continuous
 62
     7
370
    18
100
AcDbTrace
 10
308.5550327626
 20
194.5959090822
 30
0.0
 11
309.0934943011
 21
198.0959090822
 31
0.0
 12
308.0165712242
 22
198.0959090822
 32
0.0
 13
308.0165712242
 23
198.0959090822
 33
0.0
  0
SOLID
  5
297
330
293
100
AcDbEntity
  8
0
  6
Continuous
 62
     7
370
    18
100
AcDbTrace
 10
308.5550327626
 20
222.5959090822
 30
0.0
 11
308.0165712242
 21
219.0959090822
 31
0.0
 12
309.0934943011
 22
219.0959090822
 32
0.0
 13
309.0934943011
 23
219.0959090822
 33
0.0
  0
LINE
  5
298
330
293
100
AcDbEntity
  8
0
  6
Continuous
 62
     7
370
    18
100
AcDbLine
 10
315.1563709677
 20
194.5959090822
 30
0.0
 11
307.5550327626
 21
194.5959090822
 31
0.0
  0
LINE
  5
299
330
293
100
AcDbEntity
  8
0
  6
Continuous
 62
     7
370
    18
100
AcDbLine
 10
338.5563709677
 20
222.5959090822
 30
0.0
 11
307.5550327626
 21
222.5959090822
 31
0.0
  0
LINE
  5
29A
330
293
100
AcDbEntity
  8
0
  6
Continuous
 62
     7
370
    18
100
AcDbLine
 10
308.5550327626
 20
194.5959090822
 30
0.0
 11
308.5550327626
 21
222.5959090822
 31
0.0
  0
MTEXT
  5
29B
330
293
100
AcDbEntity
  8
0
  6
Continuous
 62
     7
370
    18
100
AcDbMText
 10
304.0432954406
 20
205.9222980373
 30
0.0
 40
3.5
 41
0.0
 71
     1
 72
     1
  1
28
  7
SLDTEXTSTYLE0
 11
6.123233995736766E-17
 21
1.0
 31
0.0
 73
     1
 44
1.0
  0
ENDBLK
  5
295
330
293
100
AcDbEntity
  8
0
100
AcDbBlockEnd
  0
BLOCK
  5
3B3
330
3B2
100
AcDbEntity
  8
0
100
AcDbBlockBegin
  2
_D_4
 70
     0
 10
0.0
 20
0.0
 30
0.0
  3
_D_4
  1

  0
SOLID
  5
3B5
330
3B2
100
AcDbEntity
  8
0
  6
Continuous
 62
     7
370
    18
100
AcDbTrace
 10
258.157032754
 20
86.0777483871
 30
0.0
 11
258.6954942924
 21
89.5777483871
 31
0.0
 12
257.6185712155
 22
89.5777483871
 32
0.0
 13
257.6185712155
 23
89.5777483871
 33
0.0
  0
SOLID
  5
3B6
330
3B2
100
AcDbEntity
  8
0
  6
Continuous
 62
     7
370
    18
100
AcDbTrace
 10
258.157032754
 20
148.0777483871
 30
0.0
 11
257.6185712155
 21
144.5777483871
 31
0.0
 12
258.6954942924
 22
144.5777483871
 32
0.0
 13
258.6954942924
 23
144.5777483871
 33
0.0
  0
LINE
  5
3B7
330
3B2
100
AcDbEntity
  8
0
  6
Continuous
 62
     7
370
    18
100
AcDbLine
 10
236.9054324565
 20
86.0777483871
 30
0.0
 11
259.157032754
 21
86.0777483871
 31
0.0
  0
LINE
  5
3B8
330
3B2
100
AcDbEntity
  8
0
  6
Continuous
 62
     7
370
    18
100
AcDbLine
 10
236.9054324565
 20
148.0777483871
 30
0.0
 11
259.157032754
 21
148.0777483871
 31
0.0
  0
LINE
  5
3B9
330
3B2
100
AcDbEntity
  8
0
  6
Continuous
 62
     7
370
    18
100
AcDbLine
 10
258.157032754
 20
86.0777483871
 30
0.0
 11
258.157032754
 21
148.0777483871
 31
0.0
  0
MTEXT
  5
3BA
330
3B2
100
AcDbEntity
  8
0
  6
Continuous
 62
     7
370
    18
100
AcDbMText
 10
253.6452954319
 20
114.4041373422
 30
0.0
 40
3.5
 41
0.0
 71
     1
 72
     1
  1
62
  7
SLDTEXTSTYLE0
 11
6.123233995736766E-17
 21
1.0
 31
0.0
 73
     1
 44
1.0
  0
ENDBLK
  5
3B4
330
3B2
100
AcDbEntity
  8
0
100
AcDbBlockEnd
  0
BLOCK
  5
3BD
330
3BC
100
AcDbEntity
  8
0
100
AcDbBlockBegin
  2
_D_5
 70
     0
 10
0.0
 20
0.0
 30
0.0
  3
_D_5
  1

  0
SOLID
  5
3BF
330
3BC
100
AcDbEntity
  8
0
  6
Continuous
 62
     7
370
    18
100
AcDbTrace
 10
76.8054324565
 20
85.667228778
 30
0.0
 11
80.3054324565
 21
85.1287672395
 31
0.0
 12
80.3054324565
 22
86.2056903165
 32
0.0
 13
80.3054324565
 23
86.2056903165
 33
0.0
  0
SOLID
  5
3C0
330
3BC
100
AcDbEntity
  8
0
  6
Continuous
 62
     7
370
    18
100
AcDbTrace
 10
201.8054324565
 20
85.667228778
 30
0.0
 11
198.3054324565
 21
86.2056903165
 31
0.0
 12
198.3054324565
 22
85.1287672395
 32
0.0
 13
198.3054324565
 23
85.1287672395
 33
0.0
  0
LINE
  5
3C1
330
3BC
100
AcDbEntity
  8
0
  6
Continuous
 62
     7
370
    18
100
AcDbLine
 10
76.8054324565
 20
97.9777483871
 30
0.0
 11
76.8054324565
 21
84.667228778
 31
0.0
  0
LINE
  5
3C2
330
3BC
100
AcDbEntity
  8
0
  6
Continuous
 62
     7
370
    18
100
AcDbLine
 10
201.8054324565
 20
97.9777483871
 30
0.0
 11
201.8054324565
 21
84.667228778
 31
0.0
  0
LINE
  5
3C3
330
3BC
100
AcDbEntity
  8
0
  6
Continuous
 62
     7
370
    18
100
AcDbLine
 10
76.8054324565
 20
85.667228778
 30
0.0
 11
201.8054324565
 21
85.667228778
 31
0.0
  0
MTEXT
  5
3C4
330
3BC
100
AcDbEntity
  8
0
  6
Continuous
 62
     7
370
    18
100
AcDbMText
 10
135.2950158892
 20
90.1789661
 30
0.0
 40
3.5
 41
0.0
 71
     1
 72
     1
  1
125
  7
SLDTEXTSTYLE0
 73
     1
 44
1.0
  0
ENDBLK
  5
3BE
330
3BC
100
AcDbEntity
  8
0
100
AcDbBlockEnd
  0
BLOCK
  5
3C7
330
3C6
100
AcDbEntity
  8
0
100
AcDbBlockBegin
  2
_D_6
 70
     0
 10
0.0
 20
0.0
 30
0.0
  3
_D_6
  1

  0
SOLID
  5
3C9
330
3C6
100
AcDbEntity
  8
0
  6
Continuous
 62
     7
370
    18
100
AcDbTrace
 10
213.3054324565
 20
69.5534777166
 30
0.0
 11
209.8054324565
 21
70.091939255
 31
0.0
 12
209.8054324565
 22
69.0150161781
 32
0.0
 13
209.8054324565
 23
69.0150161781
 33
0.0
  0
SOLID
  5
3CA
330
3C6
100
AcDbEntity
  8
0
  6
Continuous
 62
     7
370
    18
100
AcDbTrace
 10
65.3054324565
 20
69.5534777166
 30
0.0
 11
68.8054324565
 21
69.0150161781
 31
0.0
 12
68.8054324565
 22
70.091939255
 32
0.0
 13
68.8054324565
 23
70.091939255
 33
0.0
  0
LINE
  5
3CB
330
3C6
100
AcDbEntity
  8
0
  6
Continuous
 62
     7
370
    18
100
AcDbLine
 10
213.3054324565
 20
85.9777483871
 30
0.0
 11
213.3054324565
 21
68.5534777166
 31
0.0
  0
LINE
  5
3CC
330
3C6
100
AcDbEntity
  8
0
  6
Continuous
 62
     7
370
    18
100
AcDbLine
 10
65.3054324565
 20
85.9777483871
 30
0.0
 11
65.3054324565
 21
68.5534777166
 31
0.0
  0
LINE
  5
3CD
330
3C6
100
AcDbEntity
  8
0
  6
Continuous
 62
     7
370
    18
100
AcDbLine
 10
213.3054324565
 20
69.5534777166
 30
0.0
 11
65.3054324565
 21
69.5534777166
 31
0.0
  0
MTEXT
  5
3CE
330
3C6
100
AcDbEntity
  8
0
  6
Continuous
 62
     7
370
    18
100
AcDbMText
 10
135.2950158892
 20
74.0652150386
 30
0.0
 40
3.5
 41
0.0
 71
     1
 72
     1
  1
148
  7
SLDTEXTSTYLE0
 73
     1
 44
1.0
  0
ENDBLK
  5
3C8
330
3C6
100
AcDbEntity
  8
0
100
AcDbBlockEnd
  0
BLOCK
  5
3D1
330
3D0
100
AcDbEntity
  8
0
100
AcDbBlockBegin
  2
_D_7
 70
     0
 10
0.0
 20
0.0
 30
0.0
  3
_D_7
  1

  0
SOLID
  5
3D3
330
3D0
100
AcDbEntity
  8
0
  6
Continuous
 62
     7
370
    18
100
AcDbTrace
 10
238.8054324565
 20
158.0777483871
 30
0.0
 11
235.3054324565
 21
158.6162099256
 31
0.0
 12
235.3054324565
 22
157.5392868486
 32
0.0
 13
235.3054324565
 23
157.5392868486
 33
0.0
  0
SOLID
  5
3D4
330
3D0
100
AcDbEntity
  8
0
  6
Continuous
 62
     7
370
    18
100
AcDbTrace
 10
39.8054324565
 20
158.0777483871
 30
0.0
 11
43.3054324565
 21
157.5392868486
 31
0.0
 12
43.3054324565
 22
158.6162099256
 32
0.0
 13
43.3054324565
 23
158.6162099256
 33
0.0
  0
LINE
  5
3D5
330
3D0
100
AcDbEntity
  8
0
  6
Continuous
 62
     7
370
    18
100
AcDbLine
 10
238.8054324565
 20
146.1777483871
 30
0.0
 11
238.8054324565
 21
159.0777483871
 31
0.0
  0
LINE
  5
3D6
330
3D0
100
AcDbEntity
  8
0
  6
Continuous
 62
     7
370
    18
100
AcDbLine
 10
39.8054324565
 20
146.1777483871
 30
0.0
 11
39.8054324565
 21
159.0777483871
 31
0.0
  0
LINE
  5
3D7
330
3D0
100
AcDbEntity
  8
0
  6
Continuous
 62
     7
370
    18
100
AcDbLine
 10
238.8054324565
 20
158.0777483871
 30
0.0
 11
39.8054324565
 21
158.0777483871
 31
0.0
  0
MTEXT
  5
3D8
330
3D0
100
AcDbEntity
  8
0
  6
Continuous
 62
     7
370
    18
100
AcDbMText
 10
135.2950158892
 20
162.5894857091
 30
0.0
 40
3.5
 41
0.0
 71
     1
 72
     1
  1
199
  7
SLDTEXTSTYLE0
 73
     1
 44
1.0
  0
ENDBLK
  5
3D2
330
3D0
100
AcDbEntity
  8
0
100
AcDbBlockEnd
  0
BLOCK
  5
3DA
330
3D9
100
AcDbEntity
  8
0
100
AcDbBlockBegin
  2
SW_CENTERMARKSYMBOL_0
 70
     0
 10
0.0
 20
0.0
 30
0.0
  3
SW_CENTERMARKSYMBOL_0
  1

  0
LINE
  5
3DC
330
3D9
100
AcDbEntity
  8
0
  6
Continuous
 62
     0
370
     0
100
AcDbLine
 10
0.0
 20
0.0
 30
0.0
 11
0.0
 21
-2.5
 31
0.0
  0
LINE
  5
3DD
330
3D9
100
AcDbEntity
  8
0
  6
Continuous
 62
     0
370
     0
100
AcDbLine
 10
0.0
 20
0.0
 30
0.0
 11
2.5
 21
0.0
 31
0.0
  0
LINE
  5
3DE
330
3D9
100
AcDbEntity
  8
0
  6
Continuous
 62
     0
370
     0
100
AcDbLine
 10
0.0
 20
0.0
 30
0.0
 11
0.0
 21
2.5
 31
0.0
  0
LINE
  5
3DF
330
3D9
100
AcDbEntity
  8
0
  6
Continuous
 62
     0
370
     0
100
AcDbLine
 10
0.0
 20
0.0
 30
0.0
 11
-2.5
 21
0.0
 31
0.0
  0
LINE
  5
3E0
330
3D9
100
AcDbEntity
  8
0
  6
Continuous
 62
     0
370
     0
100
AcDbLine
 10
0.0
 20
-5.0
 30
0.0
 11
0.0
 21
-7.75
 31
0.0
  0
LINE
  5
3E1
330
3D9
100
AcDbEntity
  8
0
  6
Continuous
 62
     0
370
     0
100
AcDbLine
 10
5.0
 20
0.0
 30
0.0
 11
7.75
 21
0.0
 31
0.0
  0
LINE
  5
3E2
330
3D9
100
AcDbEntity
  8
0
  6
Continuous
 62
     0
370
     0
100
AcDbLine
 10
0.0
 20
5.0
 30
0.0
 11
0.0
 21
7.75
 31
0.0
  0
LINE
  5
3E3
330
3D9
100
AcDbEntity
  8
0
  6
Continuous
 62
     0
370
     0
100
AcDbLine
 10
-5.0
 20
0.0
 30
0.0
 11
-7.75
 21
0.0
 31
0.0
  0
LINE
  5
3E4
330
3D9
100
AcDbEntity
  8
0
  6
Continuous
 62
     0
370
     0
100
AcDbLine
 10
-7.5
 20
0.0
 30
0.0
 11
-7.5
 21
-2.5
 31
0.0
  0
LINE
  5
3E5
330
3D9
100
AcDbEntity
  8
0
  6
Continuous
 62
     0
370
     0
100
AcDbLine
 10
-7.5
 20
0.0
 30
0.0
 11
-5.0
 21
0.0
 31
0.0
  0
LINE
  5
3E6
330
3D9
100
AcDbEntity
  8
0
  6
Continuous
 62
     0
370
     0
100
AcDbLine
 10
-7.5
 20
0.0
 30
0.0
 11
-7.5
 21
2.5
 31
0.0
  0
LINE
  5
3E7
330
3D9
100
AcDbEntity
  8
0
  6
Continuous
 62
     0
370
     0
100
AcDbLine
 10
-7.5
 20
0.0
 30
0.0
 11
-10.0
 21
0.0
 31
0.0
  0
LINE
  5
3E8
330
3D9
100
AcDbEntity
  8
0
  6
Continuous
 62
     0
370
     0
100
AcDbLine
 10
-7.5
 20
-5.0
 30
0.0
 11
-7.5
 21
-7.75
 31
0.0
  0
LINE
  5
3E9
330
3D9
100
AcDbEntity
  8
0
  6
Continuous
 62
     0
370
     0
100
AcDbLine
 10
-2.5
 20
0.0
 30
0.0
 11
0.25
 21
0.0
 31
0.0
  0
LINE
  5
3EA
330
3D9
100
AcDbEntity
  8
0
  6
Continuous
 62
     0
370
     0
100
AcDbLine
 10
-7.5
 20
5.0
 30
0.0
 11
-7.5
 21
7.75
 31
0.0
  0
LINE
  5
3EB
330
3D9
100
AcDbEntity
  8
0
  6
Continuous
 62
     0
370
     0
100
AcDbLine
 10
-12.5
 20
0.0
 30
0.0
 11
-15.25
 21
0.0
 31
0.0
  0
ENDBLK
  5
3DB
330
3D9
100
AcDbEntity
  8
0
100
AcDbBlockEnd
  0
BLOCK
  5
3EE
330
3ED
100
AcDbEntity
  8
0
100
AcDbBlockBegin
  2
SW_CENTERMARKSYMBOL_1
 70
     0
 10
0.0
 20
0.0
 30
0.0
  3
SW_CENTERMARKSYMBOL_1
  1

  0
LINE
  5
3F0
330
3ED
100
AcDbEntity
  8
0
  6
Continuous
 62
     0
370
     0
100
AcDbLine
 10
0.0
 20
0.0
 30
0.0
 11
0.0
 21
-2.5
 31
0.0
  0
LINE
  5
3F1
330
3ED
100
AcDbEntity
  8
0
  6
Continuous
 62
     0
370
     0
100
AcDbLine
 10
0.0
 20
0.0
 30
0.0
 11
2.5
 21
0.0
 31
0.0
  0
LINE
  5
3F2
330
3ED
100
AcDbEntity
  8
0
  6
Continuous
 62
     0
370
     0
100
AcDbLine
 10
0.0
 20
0.0
 30
0.0
 11
0.0
 21
2.5
 31
0.0
  0
LINE
  5
3F3
330
3ED
100
AcDbEntity
  8
0
  6
Continuous
 62
     0
370
     0
100
AcDbLine
 10
0.0
 20
0.0
 30
0.0
 11
-2.5
 21
0.0
 31
0.0
  0
LINE
  5
3F4
330
3ED
100
AcDbEntity
  8
0
  6
Continuous
 62
     0
370
     0
100
AcDbLine
 10
0.0
 20
-5.0
 30
0.0
 11
0.0
 21
-7.75
 31
0.0
  0
LINE
  5
3F5
330
3ED
100
AcDbEntity
  8
0
  6
Continuous
 62
     0
370
     0
100
AcDbLine
 10
5.0
 20
0.0
 30
0.0
 11
7.75
 21
0.0
 31
0.0
  0
LINE
  5
3F6
330
3ED
100
AcDbEntity
  8
0
  6
Continuous
 62
     0
370
     0
100
AcDbLine
 10
0.0
 20
5.0
 30
0.0
 11
0.0
 21
7.75
 31
0.0
  0
LINE
  5
3F7
330
3ED
100
AcDbEntity
  8
0
  6
Continuous
 62
     0
370
     0
100
AcDbLine
 10
-5.0
 20
0.0
 30
0.0
 11
-7.75
 21
0.0
 31
0.0
  0
LINE
  5
3F8
330
3ED
100
AcDbEntity
  8
0
  6
Continuous
 62
     0
370
     0
100
AcDbLine
 10
-7.5
 20
0.0
 30
0.0
 11
-7.5
 21
-2.5
 31
0.0
  0
LINE
  5
3F9
330
3ED
100
AcDbEntity
  8
0
  6
Continuous
 62
     0
370
     0
100
AcDbLine
 10
-7.5
 20
0.0
 30
0.0
 11
-5.0
 21
0.0
 31
0.0
  0
LINE
  5
3FA
330
3ED
100
AcDbEntity
  8
0
  6
Continuous
 62
     0
370
     0
100
AcDbLine
 10
-7.5
 20
0.0
 30
0.0
 11
-7.5
 21
2.5
 31
0.0
  0
LINE
  5
3FB
330
3ED
100
AcDbEntity
  8
0
  6
Continuous
 62
     0
370
     0
100
AcDbLine
 10
-7.5
 20
0.0
 30
0.0
 11
-10.0
 21
0.0
 31
0.0
  0
LINE
  5
3FC
330
3ED
100
AcDbEntity
  8
0
  6
Continuous
 62
     0
370
     0
100
AcDbLine
 10
-7.5
 20
-5.0
 30
0.0
 11
-7.5
 21
-7.75
 31
0.0
  0
LINE
  5
3FD
330
3ED
100
AcDbEntity
  8
0
  6
Continuous
 62
     0
370
     0
100
AcDbLine
 10
-2.5
 20
0.0
 30
0.0
 11
0.25
 21
0.0
 31
0.0
  0
LINE
  5
3FE
330
3ED
100
AcDbEntity
  8
0
  6
Continuous
 62
     0
370
     0
100
AcDbLine
 10
-7.5
 20
5.0
 30
0.0
 11
-7.5
 21
7.75
 31
0.0
  0
LINE
  5
3FF
330
3ED
100
AcDbEntity
  8
0
  6
Continuous
 62
     0
370
     0
100
AcDbLine
 10
-12.5
 20
0.0
 30
0.0
 11
-15.25
 21
0.0
 31
0.0
  0
ENDBLK
  5
3EF
330
3ED
100
AcDbEntity
  8
0
100
AcDbBlockEnd
  0
BLOCK
  5
402
330
401
100
AcDbEntity
  8
0
100
AcDbBlockBegin
  2
SW_CENTERMARKSYMBOL_2
 70
     0
 10
0.0
 20
0.0
 30
0.0
  3
SW_CENTERMARKSYMBOL_2
  1

  0
LINE
  5
404
330
401
100
AcDbEntity
  8
0
  6
Continuous
 62
     0
370
     0
100
AcDbLine
 10
0.0
 20
0.0
 30
0.0
 11
0.0
 21
-2.5
 31
0.0
  0
LINE
  5
405
330
401
100
AcDbEntity
  8
0
  6
Continuous
 62
     0
370
     0
100
AcDbLine
 10
0.0
 20
0.0
 30
0.0
 11
2.5
 21
0.0
 31
0.0
  0
LINE
  5
406
330
401
100
AcDbEntity
  8
0
  6
Continuous
 62
     0
370
     0
100
AcDbLine
 10
0.0
 20
0.0
 30
0.0
 11
0.0
 21
2.5
 31
0.0
  0
LINE
  5
407
330
401
100
AcDbEntity
  8
0
  6
Continuous
 62
     0
370
     0
100
AcDbLine
 10
0.0
 20
0.0
 30
0.0
 11
-2.5
 21
0.0
 31
0.0
  0
LINE
  5
408
330
401
100
AcDbEntity
  8
0
  6
Continuous
 62
     0
370
     0
100
AcDbLine
 10
0.0
 20
-5.0
 30
0.0
 11
0.0
 21
-7.75
 31
0.0
  0
LINE
  5
409
330
401
100
AcDbEntity
  8
0
  6
Continuous
 62
     0
370
     0
100
AcDbLine
 10
5.0
 20
0.0
 30
0.0
 11
7.75
 21
0.0
 31
0.0
  0
LINE
  5
40A
330
401
100
AcDbEntity
  8
0
  6
Continuous
 62
     0
370
     0
100
AcDbLine
 10
0.0
 20
5.0
 30
0.0
 11
0.0
 21
7.75
 31
0.0
  0
LINE
  5
40B
330
401
100
AcDbEntity
  8
0
  6
Continuous
 62
     0
370
     0
100
AcDbLine
 10
-5.0
 20
0.0
 30
0.0
 11
-7.75
 21
0.0
 31
0.0
  0
LINE
  5
40C
330
401
100
AcDbEntity
  8
0
  6
Continuous
 62
     0
370
     0
100
AcDbLine
 10
-7.5
 20
0.0
 30
0.0
 11
-7.5
 21
-2.5
 31
0.0
  0
LINE
  5
40D
330
401
100
AcDbEntity
  8
0
  6
Continuous
 62
     0
370
     0
100
AcDbLine
 10
-7.5
 20
0.0
 30
0.0
 11
-5.0
 21
0.0
 31
0.0
  0
LINE
  5
40E
330
401
100
AcDbEntity
  8
0
  6
Continuous
 62
     0
370
     0
100
AcDbLine
 10
-7.5
 20
0.0
 30
0.0
 11
-7.5
 21
2.5
 31
0.0
  0
LINE
  5
40F
330
401
100
AcDbEntity
  8
0
  6
Continuous
 62
     0
370
     0
100
AcDbLine
 10
-7.5
 20
0.0
 30
0.0
 11
-10.0
 21
0.0
 31
0.0
  0
LINE
  5
410
330
401
100
AcDbEntity
  8
0
  6
Continuous
 62
     0
370
     0
100
AcDbLine
 10
-7.5
 20
-5.0
 30
0.0
 11
-7.5
 21
-7.75
 31
0.0
  0
LINE
  5
411
330
401
100
AcDbEntity
  8
0
  6
Continuous
 62
     0
370
     0
100
AcDbLine
 10
-2.5
 20
0.0
 30
0.0
 11
0.25
 21
0.0
 31
0.0
  0
LINE
  5
412
330
401
100
AcDbEntity
  8
0
  6
Continuous
 62
     0
370
     0
100
AcDbLine
 10
-7.5
 20
5.0
 30
0.0
 11
-7.5
 21
7.75
 31
0.0
  0
LINE
  5
413
330
401
100
AcDbEntity
  8
0
  6
Continuous
 62
     0
370
     0
100
AcDbLine
 10
-12.5
 20
0.0
 30
0.0
 11
-15.25
 21
0.0
 31
0.0
  0
ENDBLK
  5
403
330
401
100
AcDbEntity
  8
0
100
AcDbBlockEnd
  0
BLOCK
  5
416
330
415
100
AcDbEntity
  8
0
100
AcDbBlockBegin
  2
SW_CENTERMARKSYMBOL_3
 70
     0
 10
0.0
 20
0.0
 30
0.0
  3
SW_CENTERMARKSYMBOL_3
  1

  0
LINE
  5
418
330
415
100
AcDbEntity
  8
0
  6
Continuous
 62
     0
370
     0
100
AcDbLine
 10
0.0
 20
0.0
 30
0.0
 11
0.0
 21
-2.5
 31
0.0
  0
LINE
  5
419
330
415
100
AcDbEntity
  8
0
  6
Continuous
 62
     0
370
     0
100
AcDbLine
 10
0.0
 20
0.0
 30
0.0
 11
2.5
 21
0.0
 31
0.0
  0
LINE
  5
41A
330
415
100
AcDbEntity
  8
0
  6
Continuous
 62
     0
370
     0
100
AcDbLine
 10
0.0
 20
0.0
 30
0.0
 11
0.0
 21
2.5
 31
0.0
  0
LINE
  5
41B
330
415
100
AcDbEntity
  8
0
  6
Continuous
 62
     0
370
     0
100
AcDbLine
 10
0.0
 20
0.0
 30
0.0
 11
-2.5
 21
0.0
 31
0.0
  0
LINE
  5
41C
330
415
100
AcDbEntity
  8
0
  6
Continuous
 62
     0
370
     0
100
AcDbLine
 10
0.0
 20
-5.0
 30
0.0
 11
0.0
 21
-7.75
 31
0.0
  0
LINE
  5
41D
330
415
100
AcDbEntity
  8
0
  6
Continuous
 62
     0
370
     0
100
AcDbLine
 10
5.0
 20
0.0
 30
0.0
 11
7.75
 21
0.0
 31
0.0
  0
LINE
  5
41E
330
415
100
AcDbEntity
  8
0
  6
Continuous
 62
     0
370
     0
100
AcDbLine
 10
0.0
 20
5.0
 30
0.0
 11
0.0
 21
7.75
 31
0.0
  0
LINE
  5
41F
330
415
100
AcDbEntity
  8
0
  6
Continuous
 62
     0
370
     0
100
AcDbLine
 10
-5.0
 20
0.0
 30
0.0
 11
-7.75
 21
0.0
 31
0.0
  0
LINE
  5
420
330
415
100
AcDbEntity
  8
0
  6
Continuous
 62
     0
370
     0
100
AcDbLine
 10
-7.5
 20
0.0
 30
0.0
 11
-7.5
 21
-2.5
 31
0.0
  0
LINE
  5
421
330
415
100
AcDbEntity
  8
0
  6
Continuous
 62
     0
370
     0
100
AcDbLine
 10
-7.5
 20
0.0
 30
0.0
 11
-5.0
 21
0.0
 31
0.0
  0
LINE
  5
422
330
415
100
AcDbEntity
  8
0
  6
Continuous
 62
     0
370
     0
100
AcDbLine
 10
-7.5
 20
0.0
 30
0.0
 11
-7.5
 21
2.5
 31
0.0
  0
LINE
  5
423
330
415
100
AcDbEntity
  8
0
  6
Continuous
 62
     0
370
     0
100
AcDbLine
 10
-7.5
 20
0.0
 30
0.0
 11
-10.0
 21
0.0
 31
0.0
  0
LINE
  5
424
330
415
100
AcDbEntity
  8
0
  6
Continuous
 62
     0
370
     0
100
AcDbLine
 10
-7.5
 20
-5.0
 30
0.0
 11
-7.5
 21
-7.75
 31
0.0
  0
LINE
  5
425
330
415
100
AcDbEntity
  8
0
  6
Continuous
 62
     0
370
     0
100
AcDbLine
 10
-2.5
 20
0.0
 30
0.0
 11
0.25
 21
0.0
 31
0.0
  0
LINE
  5
426
330
415
100
AcDbEntity
  8
0
  6
Continuous
 62
     0
370
     0
100
AcDbLine
 10
-7.5
 20
5.0
 30
0.0
 11
-7.5
 21
7.75
 31
0.0
  0
LINE
  5
427
330
415
100
AcDbEntity
  8
0
  6
Continuous
 62
     0
370
     0
100
AcDbLine
 10
-12.5
 20
0.0
 30
0.0
 11
-15.25
 21
0.0
 31
0.0
  0
ENDBLK
  5
417
330
415
100
AcDbEntity
  8
0
100
AcDbBlockEnd
  0
ENDSEC
  0
SECTION
  2
ENTITIES
  0
LINE
  5
FA
330
1F
100
AcDbEntity
  8
LINIEN-DÜNN
  6
CENTERX2
100
AcDbLine
 10
352.6174545849
 20
46.9080238789
 30
0.0
 11
352.6174545849
 21
39.4621586124
 31
0.0
  0
LINE
  5
FB
330
1F
100
AcDbEntity
  8
LINIEN-DÜNN
100
AcDbLine
 10
357.7661698132
 20
46.3720107039
 30
0.0
 11
357.7661698132
 21
39.9353173413
 31
0.0
  0
LINE
  5
FC
330
1F
100
AcDbEntity
  8
LINIEN-DÜNN
100
AcDbLine
 10
364.6059427486
 20
44.7376225767
 30
0.0
 11
364.6059427486
 21
41.5697054685
 31
0.0
  0
LINE
  5
FD
330
1F
100
AcDbEntity
  8
LINIEN-DÜNN
100
AcDbLine
 10
364.6059427486
 20
44.7376225767
 30
0.0
 11
357.7661698132
 21
46.3720107039
 31
0.0
  0
LINE
  5
FE
330
1F
100
AcDbEntity
  8
LINIEN-DÜNN
100
AcDbLine
 10
15.0
 20
198.5
 30
0.0
 11
20.0
 21
198.5
 31
0.0
  0
LINE
  5
FF
330
1F
100
AcDbEntity
  8
LINIEN-DÜNN
100
AcDbLine
 10
12.0
 20
148.5
 30
0.0
 11
0.0
 21
148.5
 31
0.0
  0
LINE
  5
100
330
1F
100
AcDbEntity
  8
LINIEN-DÜNN
100
AcDbLine
 10
357.7661698132
 20
39.9353173413
 30
0.0
 11
364.6059427486
 21
41.5697054685
 31
0.0
  0
LINE
  5
101
330
1F
100
AcDbEntity
  8
LINIEN-DÜNN
  6
CENTERX2
100
AcDbLine
 10
348.6240467841
 20
43.1536640226
 30
0.0
 11
356.6108623857
 21
43.1536640226
 31
0.0
  0
LINE
  5
102
330
1F
100
AcDbEntity
  8
LINIEN-DÜNN
  6
CENTERX2
100
AcDbLine
 10
357.1289238876
 20
43.1536640226
 30
0.0
 11
365.6255362296
 21
43.1536640226
 31
0.0
  0
LINE
  5
103
330
1F
100
AcDbEntity
  8
LINIEN-DÜNN
100
AcDbLine
 10
0.0
 20
0.0
 30
0.0
 11
420.0
 21
0.0
 31
0.0
  0
LINE
  5
104
330
1F
100
AcDbEntity
  8
LINIEN-DÜNN
100
AcDbLine
 10
0.0
 20
0.0
 30
0.0
 11
0.0
 21
297.0
 31
0.0
  0
LINE
  5
105
330
1F
100
AcDbEntity
  8
LINIEN-DÜNN
100
AcDbLine
 10
0.0
 20
297.0
 30
0.0
 11
420.0
 21
297.0
 31
0.0
  0
LINE
  5
106
330
1F
100
AcDbEntity
  8
LINIEN-DÜNN
100
AcDbLine
 10
420.0
 20
0.0
 30
0.0
 11
420.0
 21
297.0
 31
0.0
  0
LINE
  5
107
330
1F
100
AcDbEntity
  8
LINIEN-NORMAL
100
AcDbLine
 10
228.0
 20
35.0
 30
0.0
 11
410.0
 21
35.0
 31
0.0
  0
LINE
  5
108
330
1F
100
AcDbEntity
  8
LINIEN-DÜNN
100
AcDbLine
 10
410.0
 20
198.5
 30
0.0
 11
415.0
 21
198.5
 31
0.0
  0
LINE
  5
109
330
1F
100
AcDbEntity
  8
LINIEN-DÜNN
100
AcDbLine
 10
15.0
 20
148.5
 30
0.0
 11
20.0
 21
148.5
 31
0.0
  0
LINE
  5
10A
330
1F
100
AcDbEntity
  8
LINIEN-DÜNN
100
AcDbLine
 10
228.0
 20
40.0
 30
0.0
 11
296.6
 21
40.0
 31
0.0
  0
LINE
  5
10B
330
1F
100
AcDbEntity
  8
LINIEN-DÜNN
100
AcDbLine
 10
15.0
 20
248.5
 30
0.0
 11
20.0
 21
248.5
 31
0.0
  0
LINE
  5
10C
330
1F
100
AcDbEntity
  8
LINIEN-DICK
100
AcDbLine
 10
20.0
 20
287.0
 30
0.0
 11
20.0
 21
10.0
 31
0.0
  0
LINE
  5
10D
330
1F
100
AcDbEntity
  8
LINIEN-DICK
100
AcDbLine
 10
410.0
 20
287.0
 30
0.0
 11
20.0
 21
287.0
 31
0.0
  0
LINE
  5
10E
330
1F
100
AcDbEntity
  8
LINIEN-DICK
100
AcDbLine
 10
410.0
 20
5.0
 30
0.0
 11
410.0
 21
287.0
 31
0.0
  0
LINE
  5
10F
330
1F
100
AcDbEntity
  8
LINIEN-DICK
100
AcDbLine
 10
20.0
 20
10.0
 30
0.0
 11
415.0
 21
10.0
 31
0.0
  0
LINE
  5
110
330
1F
100
AcDbEntity
  8
LINIEN-DÜNN
100
AcDbLine
 10
410.0
 20
148.5
 30
0.0
 11
415.0
 21
148.5
 31
0.0
  0
LINE
  5
111
330
1F
100
AcDbEntity
  8
LINIEN-DÜNN
100
AcDbLine
 10
228.0
 20
50.0
 30
0.0
 11
296.6
 21
50.0
 31
0.0
  0
LINE
  5
112
330
1F
100
AcDbEntity
  8
LINIEN-DÜNN
100
AcDbLine
 10
15.0
 20
98.5
 30
0.0
 11
20.0
 21
98.5
 31
0.0
  0
LINE
  5
113
330
1F
100
AcDbEntity
  8
LINIEN-DÜNN
100
AcDbLine
 10
296.6
 20
45.0
 30
0.0
 11
228.0
 21
45.0
 31
0.0
  0
LINE
  5
114
330
1F
100
AcDbEntity
  8
LINIEN-DÜNN
100
AcDbLine
 10
65.0
 20
292.0
 30
0.0
 11
65.0
 21
287.0
 31
0.0
  0
LINE
  5
115
330
1F
100
AcDbEntity
  8
LINIEN-DÜNN
100
AcDbLine
 10
230.0
 20
292.0
 30
0.0
 11
230.0
 21
297.0
 31
0.0
  0
LINE
  5
116
330
1F
100
AcDbEntity
  8
LINIEN-NORMAL
100
AcDbLine
 10
296.6
 20
55.0
 30
0.0
 11
296.6
 21
35.0
 31
0.0
  0
LINE
  5
117
330
1F
100
AcDbEntity
  8
LINIEN-DÜNN
100
AcDbLine
 10
410.0
 20
98.5
 30
0.0
 11
415.0
 21
98.5
 31
0.0
  0
LINE
  5
118
330
1F
100
AcDbEntity
  8
VORLAGE_BEMASSUNG
100
AcDbLine
 10
230.0
 20
5.0
 30
0.0
 11
230.0
 21
0.0
 31
0.0
  0
LINE
  5
119
330
1F
100
AcDbEntity
  8
LINIEN-DÜNN
100
AcDbLine
 10
125.0
 20
292.0
 30
0.0
 11
125.0
 21
297.0
 31
0.0
  0
LINE
  5
11A
330
1F
100
AcDbEntity
  8
LINIEN-DÜNN
100
AcDbLine
 10
125.0
 20
5.0
 30
0.0
 11
125.0
 21
0.0
 31
0.0
  0
LINE
  5
11B
330
1F
100
AcDbEntity
  8
LINIEN-NORMAL
100
AcDbLine
 10
410.0
 20
55.0
 30
0.0
 11
228.0
 21
55.0
 31
0.0
  0
LINE
  5
11C
330
1F
100
AcDbEntity
  8
LINIEN-DÜNN
100
AcDbLine
 10
228.0
 20
55.0
 30
0.0
 11
410.0
 21
55.0
 31
0.0
  0
LINE
  5
11D
330
1F
100
AcDbEntity
  8
LINIEN-DÜNN
100
AcDbLine
 10
410.0
 20
55.0
 30
0.0
 11
228.0
 21
55.0
 31
0.0
  0
LINE
  5
11E
330
1F
100
AcDbEntity
  8
LINIEN-DÜNN
100
AcDbLine
 10
268.0
 20
76.5
 30
0.0
 11
268.0
 21
55.0
 31
0.0
  0
LINE
  5
11F
330
1F
100
AcDbEntity
  8
LINIEN-DÜNN
100
AcDbLine
 10
271.6
 20
55.0
 30
0.0
 11
271.6
 21
40.0
 31
0.0
  0
LINE
  5
120
330
1F
100
AcDbEntity
  8
LINIEN-DÜNN
100
AcDbLine
 10
247.0
 20
55.0
 30
0.0
 11
247.0
 21
35.0
 31
0.0
  0
LINE
  5
121
330
1F
100
AcDbEntity
  8
LINIEN-DICK
100
AcDbLine
 10
228.0
 20
76.5
 30
0.0
 11
228.0
 21
10.0
 31
0.0
  0
LINE
  5
122
330
1F
100
AcDbEntity
  8
LINIEN-DÜNN
100
AcDbLine
 10
15.0
 20
292.0
 30
0.0
 11
415.0
 21
292.0
 31
0.0
  0
LINE
  5
123
330
1F
100
AcDbEntity
  8
LINIEN-DÜNN
100
AcDbLine
 10
228.0
 20
65.75
 30
0.0
 11
310.0
 21
65.75
 31
0.0
  0
LINE
  5
124
330
1F
100
AcDbEntity
  8
LINIEN-DICK
100
AcDbLine
 10
228.0
 20
76.5
 30
0.0
 11
410.0
 21
76.5
 31
0.0
  0
LINE
  5
125
330
1F
100
AcDbEntity
  8
LINIEN-DÜNN
100
AcDbLine
 10
15.0
 20
48.5
 30
0.0
 11
20.0
 21
48.5
 31
0.0
  0
LINE
  5
126
330
1F
100
AcDbEntity
  8
LINIEN-DÜNN
100
AcDbLine
 10
410.0
 20
48.5
 30
0.0
 11
415.0
 21
48.5
 31
0.0
  0
LINE
  5
127
330
1F
100
AcDbEntity
  8
LINIEN-DÜNN
100
AcDbLine
 10
332.6610845472
 20
20.0
 30
0.0
 11
332.6610845472
 21
10.0
 31
0.0
  0
LINE
  5
128
330
1F
100
AcDbEntity
  8
LINIEN-DÜNN
100
AcDbLine
 10
410.0
 20
248.5
 30
0.0
 11
415.0
 21
248.5
 31
0.0
  0
LINE
  5
129
330
1F
100
AcDbEntity
  8
LINIEN-DÜNN
100
AcDbLine
 10
65.0
 20
10.0
 30
0.0
 11
65.0
 21
5.0
 31
0.0
  0
LINE
  5
12A
330
1F
100
AcDbEntity
  8
LINIEN-DÜNN
100
AcDbLine
 10
115.0
 20
10.0
 30
0.0
 11
115.0
 21
5.0
 31
0.0
  0
LINE
  5
12B
330
1F
100
AcDbEntity
  8
LINIEN-DÜNN
100
AcDbLine
 10
115.0
 20
292.0
 30
0.0
 11
115.0
 21
287.0
 31
0.0
  0
LINE
  5
12C
330
1F
100
AcDbEntity
  8
LINIEN-DÜNN
100
AcDbLine
 10
165.0
 20
10.0
 30
0.0
 11
165.0
 21
5.0
 31
0.0
  0
LINE
  5
12D
330
1F
100
AcDbEntity
  8
LINIEN-DÜNN
100
AcDbLine
 10
165.0
 20
292.0
 30
0.0
 11
165.0
 21
287.0
 31
0.0
  0
LINE
  5
12E
330
1F
100
AcDbEntity
  8
LINIEN-DÜNN
100
AcDbLine
 10
215.0
 20
10.0
 30
0.0
 11
215.0
 21
5.0
 31
0.0
  0
LINE
  5
12F
330
1F
100
AcDbEntity
  8
LINIEN-DÜNN
100
AcDbLine
 10
215.0
 20
292.0
 30
0.0
 11
215.0
 21
287.0
 31
0.0
  0
LINE
  5
130
330
1F
100
AcDbEntity
  8
LINIEN-DÜNN
100
AcDbLine
 10
265.0
 20
10.0
 30
0.0
 11
265.0
 21
5.0
 31
0.0
  0
LINE
  5
131
330
1F
100
AcDbEntity
  8
LINIEN-DÜNN
100
AcDbLine
 10
265.0
 20
292.0
 30
0.0
 11
265.0
 21
287.0
 31
0.0
  0
LINE
  5
132
330
1F
100
AcDbEntity
  8
LINIEN-DÜNN
100
AcDbLine
 10
347.6610845472
 20
20.0
 30
0.0
 11
347.6610845472
 21
10.0
 31
0.0
  0
LINE
  5
133
330
1F
100
AcDbEntity
  8
LINIEN-DÜNN
100
AcDbLine
 10
362.6610845472
 20
20.0
 30
0.0
 11
362.6610845472
 21
10.0
 31
0.0
  0
LINE
  5
134
330
1F
100
AcDbEntity
  8
LINIEN-NORMAL
100
AcDbLine
 10
327.6610845472
 20
10.0
 30
0.0
 11
327.6610845472
 21
55.0
 31
0.0
  0
LINE
  5
135
330
1F
100
AcDbEntity
  8
LINIEN-DÜNN
100
AcDbLine
 10
20.0
 20
292.0
 30
0.0
 11
20.0
 21
297.0
 31
0.0
  0
LINE
  5
136
330
1F
100
AcDbEntity
  8
LINIEN-DÜNN
100
AcDbLine
 10
20.0
 20
5.0
 30
0.0
 11
20.0
 21
0.0
 31
0.0
  0
LINE
  5
137
330
1F
100
AcDbEntity
  8
LINIEN-DÜNN
100
AcDbLine
 10
315.0
 20
10.0
 30
0.0
 11
315.0
 21
5.0
 31
0.0
  0
LINE
  5
138
330
1F
100
AcDbEntity
  8
LINIEN-DÜNN
100
AcDbLine
 10
315.0
 20
292.0
 30
0.0
 11
315.0
 21
287.0
 31
0.0
  0
LINE
  5
139
330
1F
100
AcDbEntity
  8
LINIEN-DÜNN
100
AcDbLine
 10
365.0
 20
10.0
 30
0.0
 11
365.0
 21
5.0
 31
0.0
  0
LINE
  5
13A
330
1F
100
AcDbEntity
  8
LINIEN-DÜNN
100
AcDbLine
 10
365.0
 20
292.0
 30
0.0
 11
365.0
 21
287.0
 31
0.0
  0
LINE
  5
13B
330
1F
100
AcDbEntity
  8
LINIEN-DÜNN
100
AcDbLine
 10
15.0
 20
292.0
 30
0.0
 11
15.0
 21
5.0
 31
0.0
  0
LINE
  5
13C
330
1F
100
AcDbEntity
  8
LINIEN-DÜNN
100
AcDbLine
 10
15.0
 20
5.0
 30
0.0
 11
415.0
 21
5.0
 31
0.0
  0
LINE
  5
13D
330
1F
100
AcDbEntity
  8
LINIEN-DÜNN
100
AcDbLine
 10
415.0
 20
292.0
 30
0.0
 11
415.0
 21
5.0
 31
0.0
  0
LINE
  5
13E
330
1F
100
AcDbEntity
  8
LINIEN-DÜNN
100
AcDbLine
 10
347.6610845472
 20
44.213444
 30
0.0
 11
327.6610845472
 21
44.213444
 31
0.0
  0
LINE
  5
13F
330
1F
100
AcDbEntity
  8
LINIEN-DÜNN
100
AcDbLine
 10
347.6610845472
 20
35.0
 30
0.0
 11
347.6610845472
 21
55.0
 31
0.0
  0
LINE
  5
140
330
1F
100
AcDbEntity
  8
LINIEN-DÜNN
100
AcDbLine
 10
370.057188
 20
55.012032
 30
0.0
 11
370.057188
 21
35.0
 31
0.0
  0
LINE
  5
141
330
1F
100
AcDbEntity
  8
LINIEN-DÜNN
100
AcDbLine
 10
398.0
 20
35.0
 30
0.0
 11
398.0
 21
20.0
 31
0.0
  0
LINE
  5
142
330
1F
100
AcDbEntity
  8
LINIEN-DÜNN
100
AcDbLine
 10
410.0
 20
15.0
 30
0.0
 11
327.6610845472
 21
15.0
 31
0.0
  0
LINE
  5
143
330
1F
100
AcDbEntity
  8
LINIEN-DÜNN
100
AcDbLine
 10
327.6610845472
 20
20.0
 30
0.0
 11
410.0
 21
20.0
 31
0.0
  0
LINE
  5
144
330
1F
100
AcDbEntity
  8
LINIEN-DÜNN
100
AcDbLine
 10
341.485486
 20
20.0
 30
0.0
 11
341.485486
 21
27.564675
 31
0.0
  0
LINE
  5
145
330
1F
100
AcDbEntity
  8
LINIEN-NORMAL
100
AcDbLine
 10
310.0
 20
76.5
 30
0.0
 11
310.0
 21
55.0
 31
0.0
  0
CIRCLE
  5
146
330
1F
100
AcDbEntity
  8
LINIEN-DÜNN
100
AcDbCircle
 10
11.0
 20
108.5
 30
0.0
 40
2.750000000000001
  0
CIRCLE
  5
147
330
1F
100
AcDbEntity
  8
LINIEN-DÜNN
100
AcDbCircle
 10
11.0
 20
188.5
 30
0.0
 40
2.750000000000001
  0
CIRCLE
  5
148
330
1F
100
AcDbEntity
  8
LINIEN-DÜNN
100
AcDbCircle
 10
352.6174545849
 20
43.1536640226
 30
0.0
 40
3.218346681300138
  0
CIRCLE
  5
149
330
1F
100
AcDbEntity
  8
LINIEN-DÜNN
100
AcDbCircle
 10
352.6174545849
 20
43.1536640226
 30
0.0
 40
1.583958554121555
  0
INSERT
  5
14A
330
1F
100
AcDbEntity
  8
0
  6
Continuous
 62
     7
100
AcDbBlockReference
  2
ACO-Logo
 10
314.3510726297
 20
57.2426704952
 30
0.0
  0
POINT
  5
14B
330
1F
100
AcDbEntity
  8
0
  6
Continuous
 62
     7
370
     0
100
AcDbPoint
 10
314.3510726297
 20
57.2426704952
 30
0.0
  0
POINT
  5
14C
330
1F
100
AcDbEntity
  8
VORLAGE_BEMASSUNG
100
AcDbPoint
 10
0.0
 20
0.0
 30
0.0
  0
POINT
  5
14D
330
1F
100
AcDbEntity
  8
VORLAGE_BEMASSUNG
100
AcDbPoint
 10
410.0
 20
10.0
 30
0.0
  0
MTEXT
  5
14E
330
1F
100
AcDbEntity
  8
VORLAGE_TEXT
100
AcDbMText
 10
17.7359443114
 20
124.8017866468
 30
0.0
 40
2.0
 41
0.0
 71
     2
 72
     1
  1
D
  7
SLDTEXTSTYLE0
 73
     1
 44
1.0
  0
MTEXT
  5
14F
330
1F
100
AcDbEntity
  8
VORLAGE_TEXT
100
AcDbMText
 10
17.6274822413
 20
174.7261854936
 30
0.0
 40
2.0
 41
0.0
 71
     2
 72
     1
  1
C
  7
SLDTEXTSTYLE0
 73
     1
 44
1.0
  0
MTEXT
  5
150
330
1F
100
AcDbEntity
  8
VORLAGE_TEXT
100
AcDbMText
 10
17.5516905072
 20
224.4926420442
 30
0.0
 40
2.0
 41
0.0
 71
     2
 72
     1
  1
B
  7
SLDTEXTSTYLE0
 73
     1
 44
1.0
  0
MTEXT
  5
151
330
1F
100
AcDbEntity
  8
VORLAGE_TEXT
100
AcDbMText
 10
290.0344258799
 20
290.5428789914
 30
0.0
 40
2.0
 41
0.0
 71
     2
 72
     1
  1
6
  7
SLDTEXTSTYLE0
 73
     1
 44
1.0
  0
MTEXT
  5
152
330
1F
100
AcDbEntity
  8
VORLAGE_TEXT
100
AcDbMText
 10
240.0417859812
 20
290.6369260235
 30
0.0
 40
2.0
 41
0.0
 71
     2
 72
     1
  1
5
  7
SLDTEXTSTYLE0
 73
     1
 44
1.0
  0
MTEXT
  5
153
330
1F
100
AcDbEntity
  8
VORLAGE_TEXT
100
AcDbMText
 10
190.0300404524
 20
290.6343268032
 30
0.0
 40
2.0
 41
0.0
 71
     2
 72
     1
  1
4
  7
SLDTEXTSTYLE0
 73
     1
 44
1.0
  0
MTEXT
  5
154
330
1F
100
AcDbEntity
  8
VORLAGE_TEXT
100
AcDbMText
 10
140.0165868337
 20
290.6378887952
 30
0.0
 40
2.0
 41
0.0
 71
     2
 72
     1
  1
3
  7
SLDTEXTSTYLE0
 73
     1
 44
1.0
  0
MTEXT
  5
155
330
1F
100
AcDbEntity
  8
VORLAGE_TEXT
100
AcDbMText
 10
90.033223
 20
290.5566702875
 30
0.0
 40
2.0
 41
0.0
 71
     2
 72
     1
  1
2
  7
SLDTEXTSTYLE0
 73
     1
 44
1.0
  0
MTEXT
  5
156
330
1F
100
AcDbEntity
  8
VORLAGE_TEXT
100
AcDbMText
 10
40.0509551097
 20
290.5530165805
 30
0.0
 40
2.0
 41
0.0
 71
     2
 72
     1
  1
1
  7
SLDTEXTSTYLE0
 73
     1
 44
1.0
  0
MTEXT
  5
157
330
1F
100
AcDbEntity
  8
VORLAGE_TEXT
100
AcDbMText
 10
17.5609786315
 20
271.2966048816
 30
0.0
 40
2.0
 41
0.0
 71
     2
 72
     1
  1
A
  7
SLDTEXTSTYLE0
 73
     1
 44
1.0
  0
MTEXT
  5
158
330
1F
100
AcDbEntity
  8
VORLAGE_TEXT
100
AcDbMText
 10
89.9333968896
 20
8.5904490253
 30
0.0
 40
2.0
 41
0.0
 71
     2
 72
     1
  1
2
  7
SLDTEXTSTYLE0
 73
     1
 44
1.0
  0
MTEXT
  5
159
330
1F
100
AcDbEntity
  8
VORLAGE_TEXT
100
AcDbMText
 10
39.9009486579
 20
8.6623118453
 30
0.0
 40
2.0
 41
0.0
 71
     2
 72
     1
  1
1
  7
SLDTEXTSTYLE0
 73
     1
 44
1.0
  0
MTEXT
  5
15A
330
1F
100
AcDbEntity
  8
VORLAGE_TEXT
100
AcDbMText
 10
190.0227230239
 20
8.7073169286
 30
0.0
 40
2.0
 41
0.0
 71
     2
 72
     1
  1
4
  7
SLDTEXTSTYLE0
 73
     1
 44
1.0
  0
MTEXT
  5
15B
330
1F
100
AcDbEntity
  8
VORLAGE_TEXT
100
AcDbMText
 10
140.0453427777
 20
8.5647154541
 30
0.0
 40
2.0
 41
0.0
 71
     2
 72
     1
  1
3
  7
SLDTEXTSTYLE0
 73
     1
 44
1.0
  0
MTEXT
  5
15C
330
1F
100
AcDbEntity
  8
VORLAGE_TEXT
100
AcDbMText
 10
239.8749782531
 20
8.5637526825
 30
0.0
 40
2.0
 41
0.0
 71
     2
 72
     1
  1
5
  7
SLDTEXTSTYLE0
 73
     1
 44
1.0
  0
MTEXT
  5
15D
330
1F
100
AcDbEntity
  8
VORLAGE_TEXT
100
AcDbMText
 10
412.6717254925
 20
224.51208263
 30
0.0
 40
2.0
 41
0.0
 71
     2
 72
     1
  1
B
  7
SLDTEXTSTYLE0
 73
     1
 44
1.0
  0
MTEXT
  5
15E
330
1F
100
AcDbEntity
  8
VORLAGE_TEXT
100
AcDbMText
 10
412.5951211154
 20
271.2798202564
 30
0.0
 40
2.0
 41
0.0
 71
     2
 72
     1
  1
A
  7
SLDTEXTSTYLE0
 73
     1
 44
1.0
  0
MTEXT
  5
15F
330
1F
100
AcDbEntity
  8
VORLAGE_TEXT
100
AcDbMText
 10
412.6491448679
 20
174.7279841048
 30
0.0
 40
2.0
 41
0.0
 71
     2
 72
     1
  1
C
  7
SLDTEXTSTYLE0
 73
     1
 44
1.0
  0
MTEXT
  5
160
330
1F
100
AcDbEntity
  8
VORLAGE_TEXT
100
AcDbMText
 10
340.0216466634
 20
290.5954278102
 30
0.0
 40
2.0
 41
0.0
 71
     2
 72
     1
  1
7
  7
SLDTEXTSTYLE0
 73
     1
 44
1.0
  0
MTEXT
  5
161
330
1F
100
AcDbEntity
  8
VORLAGE_TEXT
100
AcDbMText
 10
390.037657264
 20
290.6215496941
 30
0.0
 40
2.0
 41
0.0
 71
     2
 72
     1
  1
8
  7
SLDTEXTSTYLE0
 73
     1
 44
1.0
  0
MTEXT
  5
162
330
1F
100
AcDbEntity
  8
VORLAGE_TEXT
100
AcDbMText
 10
17.6897935208
 20
74.7267628143
 30
0.0
 40
2.0
 41
0.0
 71
     2
 72
     1
  1
E
  7
SLDTEXTSTYLE0
 73
     1
 44
1.0
  0
MTEXT
  5
163
330
1F
100
AcDbEntity
  8
VORLAGE_TEXT
100
AcDbMText
 10
17.5936930126
 20
27.773321616
 30
0.0
 40
2.0
 41
0.0
 71
     2
 72
     1
  1
F
  7
SLDTEXTSTYLE0
 73
     1
 44
1.0
  0
MTEXT
  5
164
330
1F
100
AcDbEntity
  8
VORLAGE_TEXT
100
AcDbMText
 10
339.8003474583
 20
8.7205095051
 30
0.0
 40
2.0
 41
0.0
 71
     2
 72
     1
  1
7
  7
SLDTEXTSTYLE0
 73
     1
 44
1.0
  0
MTEXT
  5
165
330
1F
100
AcDbEntity
  8
VORLAGE_TEXT
100
AcDbMText
 10
289.7886477179
 20
8.6884673623
 30
0.0
 40
2.0
 41
0.0
 71
     2
 72
     1
  1
6
  7
SLDTEXTSTYLE0
 73
     1
 44
1.0
  0
MTEXT
  5
166
330
1F
100
AcDbEntity
  8
VORLAGE_TEXT
100
AcDbMText
 10
412.5160699095
 20
74.5096307526
 30
0.0
 40
2.0
 41
0.0
 71
     2
 72
     1
  1
E
  7
SLDTEXTSTYLE0
 73
     1
 44
1.0
  0
MTEXT
  5
167
330
1F
100
AcDbEntity
  8
VORLAGE_TEXT
100
AcDbMText
 10
412.6234021365
 20
124.4517683275
 30
0.0
 40
2.0
 41
0.0
 71
     2
 72
     1
  1
D
  7
SLDTEXTSTYLE0
 73
     1
 44
1.0
  0
MTEXT
  5
168
330
1F
100
AcDbEntity
  8
TEXT-DEUTSCH
100
AcDbMText
 10
411.7952690469
 20
41.8523506253
 30
0.0
 40
1.8
 41
0.0
 71
     3
 72
     1
  1
Plotdatum: 22.08.2018
  7
SLDTEXTSTYLE0
 11
-3.269436733918102E-15
 21
1.0
 31
0.0
 73
     1
 44
1.0
  0
MTEXT
  5
169
330
1F
100
AcDbEntity
  8
VORLAGE_TEXT
100
AcDbMText
 10
412.557933251
 20
8.2549718046
 30
0.0
 40
1.8
 41
0.0
 71
     2
 72
     1
  1
A3
  7
SLDTEXTSTYLE0
 73
     1
 44
1.0
  0
MTEXT
  5
16A
330
1F
100
AcDbEntity
  8
VORLAGE_TEXT
100
AcDbMText
 10
390.594604279
 20
8.3847467643
 30
0.0
 40
1.8
 41
0.0
 71
     2
 72
     1
  1
CAD-System: SolidWorks
  7
SLDTEXTSTYLE0
 73
     1
 44
1.0
  0
MTEXT
  5
16B
330
1F
100
AcDbEntity
  8
TEXT
100
AcDbMText
 10
404.0541923444
 20
28.4394692021
 30
0.0
 40
5.0
 41
0.0
 71
     2
 72
     1
  1
-
  7
SLDTEXTSTYLE0
 73
     1
 44
1.0
  0
MTEXT
  5
16C
330
1F
100
AcDbEntity
  8
TEXT
100
AcDbMText
 10
249.556836311
 20
38.5581729516
 30
0.0
 40
2.0
 41
0.0
 71
     1
 72
     1
  1
Freigegeben
  7
SLDTEXTSTYLE0
 73
     1
 44
1.0
  0
MTEXT
  5
16D
330
1F
100
AcDbEntity
  8
TEXT
100
AcDbMText
 10
284.096264263
 20
43.5473338598
 30
0.0
 40
2.0
 41
0.0
 71
     2
 72
     1
  1
dca
  7
SLDTEXTSTYLE0
 73
     1
 44
1.0
  0
MTEXT
  5
16E
330
1F
100
AcDbEntity
  8
TEXT
100
AcDbMText
 10
249.5284668163
 20
43.5603133928
 30
0.0
 40
2.0
 41
0.0
 71
     1
 72
     1
  1
22.08.2018
  7
SLDTEXTSTYLE0
 73
     1
 44
1.0
  0
MTEXT
  5
16F
330
1F
100
AcDbEntity
  8
TEXT
100
AcDbMText
 10
283.7836865885
 20
48.5138972561
 30
0.0
 40
2.0
 41
0.0
 71
     2
 72
     1
  1
haljilji
  7
SLDTEXTSTYLE0
 73
     1
 44
1.0
  0
MTEXT
  5
170
330
1F
100
AcDbEntity
  8
TEXT
100
AcDbMText
 10
249.5284668163
 20
48.4989062069
 30
0.0
 40
2.0
 41
0.0
 71
     1
 72
     1
  1
19.07.17
  7
SLDTEXTSTYLE0
 73
     1
 44
1.0
  0
MTEXT
  5
171
330
1F
100
AcDbEntity
  8
0
  6
Continuous
 62
     7
370
     0
100
AcDbMText
 10
370.655574235
 20
38.8723054925
 30
0.0
 40
1.5
 41
0.0
 71
     1
 72
     1
  1
Copyright reserved! © ACO Passavant AG
  7
SLDTEXTSTYLE0
 73
     1
 44
1.0
  0
INSERT
  5
17A
330
1F
100
AcDbEntity
  8
0
  6
Continuous
 62
     7
370
     0
100
AcDbBlockReference
  2
SW_NOTE_1
 10
372.2203831445
 20
51.2202922854
 30
0.0
  0
MTEXT
  5
17B
330
1F
100
AcDbEntity
  8
TEXT
100
AcDbMText
 10
330.2607505021
 20
18.524501801
 30
0.0
 40
2.0
 41
0.0
 71
     2
 72
     1
  1
-
  7
SLDTEXTSTYLE0
 73
     1
 44
1.0
  0
MTEXT
  5
17C
330
1F
100
AcDbEntity
  8
VORLAGE_TEXT
100
AcDbMText
 10
311.764909851
 20
46.3490312465
 30
0.0
 40
5.0
 41
0.0
 71
     2
 72
     1
  1
1:1
  7
SLDTEXTSTYLE0
 73
     1
 44
1.0
  0
MTEXT
  5
17D
330
1F
100
AcDbEntity
  8
VORLAGE_TEXT
100
AcDbMText
 10
230.1851195342
 20
38.7793829468
 30
0.0
 40
2.0
 41
0.0
 71
     1
 72
     1
  1
Status:
  7
SLDTEXTSTYLE0
 73
     1
 44
1.0
  0
MTEXT
  5
17E
330
1F
100
AcDbEntity
  8
TEXT
100
AcDbMText
 10
344.926838705
 20
28.2772828851
 30
0.0
 40
5.0
 41
0.0
 71
     1
 72
     1
  1
420219
  7
SLDTEXTSTYLE0
 73
     1
 44
1.0
  0
MTEXT
  5
17F
330
1F
100
AcDbEntity
  8
TEXT
100
AcDbMText
 10
231.1132118803
 20
14.9211049657
 30
0.0
 40
2.5
 41
0.0
 71
     1
 72
     1
  1
Art. Nr.: 420219
  7
SLDTEXTSTYLE0
 73
     1
 44
1.0
  0
MTEXT
  5
180
330
1F
100
AcDbEntity
  8
TEXT
100
AcDbMText
 10
231.1475981734
 20
21.4529560996
 30
0.0
 40
2.5
 41
0.0
 71
     1
 72
     1
  1
Ca. alle 10m (Art. 420227+420223+Schrauben)
  7
SLDTEXTSTYLE0
 73
     1
 44
1.0
  0
MTEXT
  5
181
330
1F
100
AcDbEntity
  8
TEXT
100
AcDbMText
 10
231.1159560181
 20
33.0904969858
 30
0.0
 40
2.5
 41
0.0
 71
     1
 72
     1
  1
Bauelemente
  7
SLDTEXTSTYLE0
 73
     1
 44
1.0
  0
MTEXT
  5
182
330
1F
100
AcDbEntity
  8
TEXT
100
AcDbMText
 10
231.1475981734
 20
28.0307932366
 30
0.0
 40
3.5
 41
0.0
 71
     1
 72
     1
  1
Schubsicheruingsset
  7
SLDTEXTSTYLE0
 73
     1
 44
1.0
  0
MTEXT
  5
183
330
1F
100
AcDbEntity
  8
VORLAGE_TEXT
100
AcDbMText
 10
348.2746465368
 20
53.819119072
 30
0.0
 40
2.0
 41
0.0
 71
     1
 72
     1
  1
Projektion: ISO-E
  7
SLDTEXTSTYLE0
 73
     1
 44
1.0
  0
MTEXT
  5
184
330
1F
100
AcDbEntity
  8
TEXT
100
AcDbMText
 10
337.7677091855
 20
49.3670227094
 30
0.0
 40
2.5
 41
0.0
 71
     2
 72
     1
  1
Millimeter
  7
SLDTEXTSTYLE0
 73
     1
 44
1.0
  0
MTEXT
  5
185
330
1F
100
AcDbEntity
  8
VORLAGE_TEXT
100
AcDbMText
 10
337.6323777421
 20
53.855374072
 30
0.0
 40
2.0
 41
0.0
 71
     2
 72
     1
  1
Masseinheit:
  7
SLDTEXTSTYLE0
 73
     1
 44
1.0
  0
MTEXT
  5
186
330
1F
100
AcDbEntity
  8
VORLAGE_TEXT
100
AcDbMText
 10
337.6114490186
 20
43.5452078816
 30
0.0
 40
2.0
 41
0.0
 71
     2
 72
     1
  1
Blatt / Anz.:
  7
SLDTEXTSTYLE0
 73
     1
 44
1.0
  0
MTEXT
  5
187
330
1F
100
AcDbEntity
  8
VORLAGE_TEXT
100
AcDbMText
 10
329.2895578243
 20
28.4139191092
 30
0.0
 40
5.0
 41
0.0
 71
     1
 72
     1
  1
CH
  7
SLDTEXTSTYLE0
 73
     1
 44
1.0
  0
MTEXT
  5
188
330
1F
100
AcDbEntity
  8
VORLAGE_TEXT
100
AcDbMText
 10
330.40704
 20
33.692638072
 30
0.0
 40
2.0
 41
0.0
 71
     1
 72
     1
  1
Zeichnung Nr.:
  7
SLDTEXTSTYLE0
 73
     1
 44
1.0
  0
MTEXT
  5
189
330
1F
100
AcDbEntity
  8
VORLAGE_TEXT
100
AcDbMText
 10
269.897953
 20
75.161075072
 30
0.0
 40
2.0
 41
0.0
 71
     1
 72
     1
  1
Gewicht:
  7
SLDTEXTSTYLE0
 73
     1
 44
1.0
  0
MTEXT
  5
18A
330
1F
100
AcDbEntity
  8
VORLAGE_TEXT
100
AcDbMText
 10
230.0
 20
64.542328072
 30
0.0
 40
2.0
 41
0.0
 71
     1
 72
     1
  1
zul. Abweichung:
  7
SLDTEXTSTYLE0
 73
     1
 44
1.0
  0
MTEXT
  5
18B
330
1F
100
AcDbEntity
  8
VORLAGE_TEXT
100
AcDbMText
 10
269.612607
 20
64.542328072
 30
0.0
 40
2.0
 41
0.0
 71
     1
 72
     1
  1
Oberfläche:
  7
SLDTEXTSTYLE0
 73
     1
 44
1.0
  0
MTEXT
  5
18C
330
1F
100
AcDbEntity
  8
VORLAGE_TEXT
100
AcDbMText
 10
230.261411
 20
43.4433838912
 30
0.0
 40
2.0
 41
0.0
 71
     1
 72
     1
  1
Freigegeben:
  7
SLDTEXTSTYLE0
 73
     1
 44
1.0
  0
MTEXT
  5
18D
330
1F
100
AcDbEntity
  8
VORLAGE_TEXT
100
AcDbMText
 10
230.0
 20
75.161075072
 30
0.0
 40
2.0
 41
0.0
 71
     1
 72
     1
  1
Werkstoff:
  7
SLDTEXTSTYLE0
 73
     1
 44
1.0
  0
MTEXT
  5
18E
330
1F
100
AcDbEntity
  8
VORLAGE_TEXT
100
AcDbMText
 10
254.035545
 20
53.129475072
 30
0.0
 40
2.0
 41
0.0
 71
     1
 72
     1
  1
Datum:
  7
SLDTEXTSTYLE0
 73
     1
 44
1.0
  0
MTEXT
  5
18F
330
1F
100
AcDbEntity
  8
VORLAGE_TEXT
100
AcDbMText
 10
279.934928
 20
53.136060072
 30
0.0
 40
2.0
 41
0.0
 71
     1
 72
     1
  1
Name:
  7
SLDTEXTSTYLE0
 73
     1
 44
1.0
  0
MTEXT
  5
190
330
1F
100
AcDbEntity
  8
VORLAGE_TEXT
100
AcDbMText
 10
312.162455406
 20
53.881591072
 30
0.0
 40
2.0
 41
0.0
 71
     2
 72
     1
  1
Massstab:
  7
SLDTEXTSTYLE0
 73
     1
 44
1.0
  0
MTEXT
  5
191
330
1F
100
AcDbEntity
  8
VORLAGE_TEXT
100
AcDbMText
 10
403.9552944035
 20
33.324874072
 30
0.0
 40
2.0
 41
0.0
 71
     2
 72
     1
  1
Index:
  7
SLDTEXTSTYLE0
 73
     1
 44
1.0
  0
MTEXT
  5
192
330
1F
100
AcDbEntity
  8
VORLAGE_TEXT
100
AcDbMText
 10
230.261411
 20
48.4499477886
 30
0.0
 40
2.0
 41
0.0
 71
     1
 72
     1
  1
Erstellt:
  7
SLDTEXTSTYLE0
 73
     1
 44
1.0
  0
MTEXT
  5
194
330
1F
100
AcDbEntity
  8
VORLAGE_TEXT
100
AcDbMText
 10
337.6348165843
 20
39.869706576
 30
0.0
 40
2.5
 41
0.0
 71
     2
 72
     1
  1
1 / 1
  7
SLDTEXTSTYLE2
 73
     1
 44
1.0
  0
MTEXT
  5
195
330
1F
100
AcDbEntity
  8
TEXT
100
AcDbMText
 10
269.612607
 20
60.8119428599
 30
0.0
 40
3.0
 41
0.0
 71
     1
 72
     1
  1
DIN ISO 1302
  7
SLDTEXTSTYLE0
 73
     1
 44
1.0
  0
MTEXT
  5
196
330
1F
100
AcDbEntity
  8
TEXT
100
AcDbMText
 10
230.0
 20
60.8119428599
 30
0.0
 40
3.0
 41
0.0
 71
     1
 72
     1
  1
Norm
  7
SLDTEXTSTYLE0
 73
     1
 44
1.0
  0
MTEXT
  5
197
330
1F
100
AcDbEntity
  8
TEXT
100
AcDbMText
 10
269.612607
 20
71.2121947186
 30
0.0
 40
3.0
 41
0.0
 71
     1
 72
     1
  1
0.35 kg
  7
SLDTEXTSTYLE0
 73
     1
 44
1.0
  0
MTEXT
  5
198
330
1F
100
AcDbEntity
  8
TEXT
100
AcDbMText
 10
230.0
 20
71.2121947186
 30
0.0
 40
3.0
 41
0.0
 71
     1
 72
     1
  1
Edelstahl
  7
SLDTEXTSTYLE0
 73
     1
 44
1.0
  0
CIRCLE
  5
199
330
1F
100
AcDbEntity
  8
0
  6
Continuous
 62
     7
370
    25
100
AcDbCircle
 10
212.3054324565
 20
222.5959090822
 30
0.0
 40
3.309499999999986
  0
CIRCLE
  5
19A
330
1F
100
AcDbEntity
  8
0
  6
Continuous
 62
     7
370
    25
100
AcDbCircle
 10
212.3054324565
 20
222.5959090822
 30
0.0
 40
4.0
  0
CIRCLE
  5
19B
330
1F
100
AcDbEntity
  8
0
  6
Continuous
 62
     7
370
    25
100
AcDbCircle
 10
66.3054324565
 20
222.5959090822
 30
0.0
 40
3.309499999999993
  0
CIRCLE
  5
19C
330
1F
100
AcDbEntity
  8
0
  6
Continuous
 62
     7
370
    25
100
AcDbCircle
 10
66.3054324565
 20
222.5959090822
 30
0.0
 40
4.0
  0
SPLINE
  5
19D
330
1F
100
AcDbEntity
  8
0
  6
Continuous
 62
     7
370
    25
100
AcDbSpline
210
0.0
220
0.0
230
1.0
 70
    24
 71
     3
 72
     9
 73
     5
 74
     0
 42
0.000000001
 43
0.00000001
 40
0.0
 40
0.0
 40
0.0
 40
0.0
 40
0.4954579634770051
 40
1.0
 40
1.0
 40
1.0
 40
1.0
 10
218.8054324564802
 20
218.8431323324397
 30
0.0
 10
218.2776181686926
 20
218.5383986113034
 30
0.0
 10
217.2123122765773
 20
217.9233439677213
 30
0.0
 10
216.1110603475011
 20
217.2875358700236
 30
0.0
 10
215.5554324564802
 20
216.9667439575734
 30
0.0
  0
ARC
  5
19E
330
1F
100
AcDbEntity
  8
0
  6
Continuous
 62
     7
370
    25
100
AcDbCircle
 10
212.3054324565
 20
222.5959090822
 30
0.0
 40
6.500000000000016
100
AcDbArc
 50
300.0
 51
0.0
  0
SPLINE
  5
19F
330
1F
100
AcDbEntity
  8
0
  6
Continuous
 62
     7
370
    25
100
AcDbSpline
210
0.0
220
0.0
230
1.0
 70
    24
 71
     3
 72
    10
 73
     6
 74
     0
 42
0.000000001
 43
0.00000001
 40
0.0
 40
0.0
 40
0.0
 40
0.0
 40
0.2572432618847676
 40
0.6263798857723062
 40
0.9999999999999999
 40
0.9999999999999999
 40
0.9999999999999999
 40
0.9999999999999999
 10
218.8054324564802
 20
218.8431323324397
 30
0.0
 10
218.8054324564802
 20
219.1582739083412
 30
0.0
 10
218.8054324564802
 20
219.9256345103994
 30
0.0
 10
218.8054324564802
 20
221.1780746403714
 30
0.0
 10
218.8054324564802
 20
222.1213995426831
 30
0.0
 10
218.8054324564802
 20
222.5959090821723
 30
0.0
  0
SPLINE
  5
1A0
330
1F
100
AcDbEntity
  8
0
  6
Continuous
 62
     7
370
    25
100
AcDbSpline
210
0.0
220
0.0
230
1.0
 70
    24
 71
     3
 72
     9
 73
     5
 74
     0
 42
0.000000001
 43
0.00000001
 40
0.0
 40
0.0
 40
0.0
 40
0.0
 40
0.4954579634770073
 40
1.0
 40
1.0
 40
1.0
 40
1.0
 10
212.3054324564801
 20
215.0903555827071
 30
0.0
 10
211.7776181686926
 20
215.3950893038433
 30
0.0
 10
210.7123122765773
 20
216.0101439474254
 30
0.0
 10
209.6110603475011
 20
216.6459520451232
 30
0.0
 10
209.0554324564801
 20
216.9667439575734
 30
0.0
  0
ARC
  5
1A1
330
1F
100
AcDbEntity
  8
0
  6
Continuous
 62
     7
370
    25
100
AcDbCircle
 10
212.3054324565
 20
222.5959090822
 30
0.0
 40
6.50000000000003
100
AcDbArc
 50
240.0
 51
300.0
  0
SPLINE
  5
1A2
330
1F
100
AcDbEntity
  8
0
  6
Continuous
 62
     7
370
    25
100
AcDbSpline
210
0.0
220
0.0
230
1.0
 70
    24
 71
     3
 72
    10
 73
     6
 74
     0
 42
0.000000001
 43
0.00000001
 40
0.0
 40
0.0
 40
0.0
 40
0.0
 40
0.0700769119681905
 40
0.530777664039412
 40
0.9999999999999999
 40
0.9999999999999999
 40
0.9999999999999999
 40
0.9999999999999999
 10
215.5554324564802
 20
216.9667439575734
 30
0.0
 10
215.4784113995355
 20
216.9222758296131
 30
0.0
 10
214.8950372818879
 20
216.5854646257509
 30
0.0
 10
213.7951001103907
 20
215.9504156036955
 30
0.0
 10
212.8050126462065
 20
215.3787883397274
 30
0.0
 10
212.3054324564801
 20
215.0903555827071
 30
0.0
  0
ARC
  5
1A3
330
1F
100
AcDbEntity
  8
0
  6
Continuous
 62
     7
370
    25
100
AcDbCircle
 10
212.3054324565
 20
222.5959090822
 30
0.0
 40
6.500000000000006
100
AcDbArc
 50
60.0
 51
120.0
  0
ARC
  5
1A4
330
1F
100
AcDbEntity
  8
0
  6
Continuous
 62
     7
370
    25
100
AcDbCircle
 10
212.3054324565
 20
222.5959090822
 30
0.0
 40
6.5
100
AcDbArc
 50
0.0
 51
60.0
  0
ARC
  5
1A5
330
1F
100
AcDbEntity
  8
0
  6
Continuous
 62
     7
370
    25
100
AcDbCircle
 10
212.3054324565
 20
222.5959090822
 30
0.0
 40
6.50000000000003
100
AcDbArc
 50
180.0
 51
240.0
  0
ARC
  5
1A6
330
1F
100
AcDbEntity
  8
0
  6
Continuous
 62
     7
370
    25
100
AcDbCircle
 10
212.3054324565
 20
222.5959090822
 30
0.0
 40
6.500000000000028
100
AcDbArc
 50
120.0
 51
180.0
  0
SPLINE
  5
1A7
330
1F
100
AcDbEntity
  8
0
  6
Continuous
 62
     7
370
    25
100
AcDbSpline
210
0.0
220
0.0
230
1.0
 70
    24
 71
     3
 72
    10
 73
     6
 74
     0
 42
0.000000001
 43
0.00000001
 40
0.0
 40
0.0
 40
0.0
 40
0.0
 40
0.0700769119681875
 40
0.5307776640394114
 40
1.0
 40
1.0
 40
1.0
 40
1.0
 10
209.0554324564801
 20
216.9667439575734
 30
0.0
 10
208.9784113995355
 20
217.0112120855337
 30
0.0
 10
208.3950372818879
 20
217.3480232893958
 30
0.0
 10
207.2951001103907
 20
217.9830723114513
 30
0.0
 10
206.3050126462065
 20
218.5546995754194
 30
0.0
 10
205.8054324564801
 20
218.8431323324397
 30
0.0
  0
SPLINE
  5
1A8
330
1F
100
AcDbEntity
  8
0
  6
Continuous
 62
     7
370
    25
100
AcDbSpline
210
0.0
220
0.0
230
1.0
 70
    24
 71
     3
 72
    10
 73
     6
 74
     0
 42
0.000000001
 43
0.00000001
 40
0.0
 40
0.0
 40
0.0
 40
0.0
 40
0.2572432618847689
 40
0.6263798857723069
 40
1.0
 40
1.0
 40
1.0
 40
1.0
 10
205.8054324564801
 20
218.8431323324397
 30
0.0
 10
205.8054324564801
 20
219.1582739083412
 30
0.0
 10
205.8054324564801
 20
219.9256345103994
 30
0.0
 10
205.8054324564801
 20
221.1780746403715
 30
0.0
 10
205.8054324564801
 20
222.1213995426831
 30
0.0
 10
205.8054324564801
 20
222.5959090821723
 30
0.0
  0
SPLINE
  5
1A9
330
1F
100
AcDbEntity
  8
0
  6
Continuous
 62
     7
370
    25
100
AcDbSpline
210
0.0
220
0.0
230
1.0
 70
    24
 71
     3
 72
    10
 73
     6
 74
     0
 42
0.000000001
 43
0.00000001
 40
0.0
 40
0.0
 40
0.0
 40
0.0
 40
0.0700769119681885
 40
0.530777664039407
 40
0.9999999999999999
 40
0.9999999999999999
 40
0.9999999999999999
 40
0.9999999999999999
 10
215.5554324564802
 20
228.2250742067711
 30
0.0
 10
215.6324535134248
 20
228.1806060788109
 30
0.0
 10
216.2158276310724
 20
227.8437948749487
 30
0.0
 10
217.3157648025695
 20
227.2087458528932
 30
0.0
 10
218.3058522667538
 20
226.6371185889251
 30
0.0
 10
218.8054324564802
 20
226.3486858319048
 30
0.0
  0
SPLINE
  5
1AA
330
1F
100
AcDbEntity
  8
0
  6
Continuous
 62
     7
370
    25
100
AcDbSpline
210
0.0
220
0.0
230
1.0
 70
    24
 71
     3
 72
    10
 73
     6
 74
     0
 42
0.000000001
 43
0.00000001
 40
0.0
 40
0.0
 40
0.0
 40
0.0
 40
0.2684065359321917
 40
0.6323728964502843
 40
1.0
 40
1.0
 40
1.0
 40
1.0
 10
218.8054324564802
 20
222.5959090821723
 30
0.0
 10
218.8054324564802
 20
222.9367163483798
 30
0.0
 10
218.8054324564802
 20
223.7396672799377
 30
0.0
 10
218.8054324564802
 20
224.9993931103414
 30
0.0
 10
218.8054324564802
 20
225.8974237379429
 30
0.0
 10
218.8054324564802
 20
226.3486858319048
 30
0.0
  0
SPLINE
  5
1AB
330
1F
100
AcDbEntity
  8
0
  6
Continuous
 62
     7
370
    25
100
AcDbSpline
210
0.0
220
0.0
230
1.0
 70
    24
 71
     3
 72
    10
 73
     6
 74
     0
 42
0.000000001
 43
0.00000001
 40
0.0
 40
0.0
 40
0.0
 40
0.0
 40
0.0700769119681883
 40
0.5307776640394126
 40
1.0
 40
1.0
 40
1.0
 40
1.0
 10
209.0554324564801
 20
228.2250742067711
 30
0.0
 10
209.1324535134248
 20
228.2695423347313
 30
0.0
 10
209.7158276310724
 20
228.6063535385935
 30
0.0
 10
210.8157648025696
 20
229.241402560649
 30
0.0
 10
211.8058522667538
 20
229.8130298246171
 30
0.0
 10
212.3054324564802
 20
230.1014625816374
 30
0.0
  0
SPLINE
  5
1AC
330
1F
100
AcDbEntity
  8
0
  6
Continuous
 62
     7
370
    25
100
AcDbSpline
210
0.0
220
0.0
230
1.0
 70
    24
 71
     3
 72
     9
 73
     5
 74
     0
 42
0.000000001
 43
0.00000001
 40
0.0
 40
0.0
 40
0.0
 40
0.0
 40
0.4954579634770042
 40
0.9999999999999999
 40
0.9999999999999999
 40
0.9999999999999999
 40
0.9999999999999999
 10
212.3054324564802
 20
230.1014625816374
 30
0.0
 10
212.8332467442677
 20
229.7967288605012
 30
0.0
 10
213.898552636383
 20
229.181674216919
 30
0.0
 10
214.9998045654592
 20
228.5458661192213
 30
0.0
 10
215.5554324564802
 20
228.2250742067711
 30
0.0
  0
SPLINE
  5
1AD
330
1F
100
AcDbEntity
  8
0
  6
Continuous
 62
     7
370
    25
100
AcDbSpline
210
0.0
220
0.0
230
1.0
 70
    24
 71
     3
 72
     9
 73
     5
 74
     0
 42
0.000000001
 43
0.00000001
 40
0.0
 40
0.0
 40
0.0
 40
0.0
 40
0.4954579634770042
 40
0.9999999999999999
 40
0.9999999999999999
 40
0.9999999999999999
 40
0.9999999999999999
 10
205.8054324564801
 20
226.3486858319048
 30
0.0
 10
206.3332467442677
 20
226.6534195530411
 30
0.0
 10
207.398552636383
 20
227.2684741966231
 30
0.0
 10
208.4998045654592
 20
227.9042822943209
 30
0.0
 10
209.0554324564801
 20
228.2250742067711
 30
0.0
  0
SPLINE
  5
1AE
330
1F
100
AcDbEntity
  8
0
  6
Continuous
 62
     7
370
    25
100
AcDbSpline
210
0.0
220
0.0
230
1.0
 70
    24
 71
     3
 72
    10
 73
     6
 74
     0
 42
0.000000001
 43
0.00000001
 40
0.0
 40
0.0
 40
0.0
 40
0.0
 40
0.2684065359321932
 40
0.632372896450284
 40
0.9999999999999999
 40
0.9999999999999999
 40
0.9999999999999999
 40
0.9999999999999999
 10
205.8054324564801
 20
222.5959090821723
 30
0.0
 10
205.8054324564801
 20
222.9367163483798
 30
0.0
 10
205.8054324564801
 20
223.7396672799377
 30
0.0
 10
205.8054324564801
 20
224.9993931103414
 30
0.0
 10
205.8054324564801
 20
225.8974237379429
 30
0.0
 10
205.8054324564801
 20
226.3486858319048
 30
0.0
  0
SPLINE
  5
1AF
330
1F
100
AcDbEntity
  8
0
  6
Continuous
 62
     7
370
    25
100
AcDbSpline
210
0.0
220
0.0
230
1.0
 70
    24
 71
     3
 72
    10
 73
     6
 74
     0
 42
0.000000001
 43
0.00000001
 40
0.0
 40
0.0
 40
0.0
 40
0.0
 40
0.0700769119681885
 40
0.530777664039407
 40
0.9999999999999999
 40
0.9999999999999999
 40
0.9999999999999999
 40
0.9999999999999999
 10
69.55543245648012
 20
228.2250742067711
 30
0.0
 10
69.63245351342475
 20
228.1806060788109
 30
0.0
 10
70.2158276310725
 20
227.8437948749487
 30
0.0
 10
71.3157648025695
 20
227.2087458528931
 30
0.0
 10
72.3058522667538
 20
226.6371185889251
 30
0.0
 10
72.80543245648015
 20
226.3486858319048
 30
0.0
  0
SPLINE
  5
1B0
330
1F
100
AcDbEntity
  8
0
  6
Continuous
 62
     7
370
    25
100
AcDbSpline
210
0.0
220
0.0
230
1.0
 70
    24
 71
     3
 72
    10
 73
     6
 74
     0
 42
0.000000001
 43
0.00000001
 40
0.0
 40
0.0
 40
0.0
 40
0.0
 40
0.2684065359321917
 40
0.6323728964502843
 40
1.0
 40
1.0
 40
1.0
 40
1.0
 10
72.80543245648015
 20
222.5959090821723
 30
0.0
 10
72.80543245648015
 20
222.9367163483798
 30
0.0
 10
72.80543245648018
 20
223.7396672799377
 30
0.0
 10
72.80543245648009
 20
224.9993931103414
 30
0.0
 10
72.80543245648012
 20
225.8974237379429
 30
0.0
 10
72.80543245648015
 20
226.3486858319048
 30
0.0
  0
ARC
  5
1B1
330
1F
100
AcDbEntity
  8
0
  6
Continuous
 62
     7
370
    25
100
AcDbCircle
 10
66.3054324565
 20
222.5959090822
 30
0.0
 40
6.5
100
AcDbArc
 50
0.0
 51
60.0
  0
SPLINE
  5
1B2
330
1F
100
AcDbEntity
  8
0
  6
Continuous
 62
     7
370
    25
100
AcDbSpline
210
0.0
220
0.0
230
1.0
 70
    24
 71
     3
 72
    10
 73
     6
 74
     0
 42
0.000000001
 43
0.00000001
 40
0.0
 40
0.0
 40
0.0
 40
0.0
 40
0.0700769119681883
 40
0.5307776640394126
 40
1.0
 40
1.0
 40
1.0
 40
1.0
 10
63.05543245648014
 20
228.2250742067711
 30
0.0
 10
63.13245351342476
 20
228.2695423347313
 30
0.0
 10
63.71582763107246
 20
228.6063535385935
 30
0.0
 10
64.81576480256952
 20
229.241402560649
 30
0.0
 10
65.8058522667538
 20
229.8130298246171
 30
0.0
 10
66.30543245648015
 20
230.1014625816374
 30
0.0
  0
SPLINE
  5
1B3
330
1F
100
AcDbEntity
  8
0
  6
Continuous
 62
     7
370
    25
100
AcDbSpline
210
0.0
220
0.0
230
1.0
 70
    24
 71
     3
 72
     9
 73
     5
 74
     0
 42
0.000000001
 43
0.00000001
 40
0.0
 40
0.0
 40
0.0
 40
0.0
 40
0.4954579634770042
 40
0.9999999999999999
 40
0.9999999999999999
 40
0.9999999999999999
 40
0.9999999999999999
 10
66.30543245648012
 20
230.1014625816374
 30
0.0
 10
66.83324674426767
 20
229.7967288605011
 30
0.0
 10
67.89855263638304
 20
229.181674216919
 30
0.0
 10
68.99980456545916
 20
228.5458661192213
 30
0.0
 10
69.55543245648015
 20
228.2250742067711
 30
0.0
  0
ARC
  5
1B4
330
1F
100
AcDbEntity
  8
0
  6
Continuous
 62
     7
370
    25
100
AcDbCircle
 10
66.3054324565
 20
222.5959090822
 30
0.0
 40
6.499999999999971
100
AcDbArc
 50
60.0
 51
120.0
  0
SPLINE
  5
1B5
330
1F
100
AcDbEntity
  8
0
  6
Continuous
 62
     7
370
    25
100
AcDbSpline
210
0.0
220
0.0
230
1.0
 70
    24
 71
     3
 72
     9
 73
     5
 74
     0
 42
0.000000001
 43
0.00000001
 40
0.0
 40
0.0
 40
0.0
 40
0.0
 40
0.4954579634770042
 40
0.9999999999999999
 40
0.9999999999999999
 40
0.9999999999999999
 40
0.9999999999999999
 10
59.80543245648011
 20
226.3486858319048
 30
0.0
 10
60.33324674426767
 20
226.6534195530411
 30
0.0
 10
61.39855263638301
 20
227.2684741966231
 30
0.0
 10
62.49980456545919
 20
227.9042822943209
 30
0.0
 10
63.05543245648014
 20
228.2250742067711
 30
0.0
  0
ARC
  5
1B6
330
1F
100
AcDbEntity
  8
0
  6
Continuous
 62
     7
370
    25
100
AcDbCircle
 10
66.3054324565
 20
222.5959090822
 30
0.0
 40
6.500000000000007
100
AcDbArc
 50
120.0
 51
180.0
  0
SPLINE
  5
1B7
330
1F
100
AcDbEntity
  8
0
  6
Continuous
 62
     7
370
    25
100
AcDbSpline
210
0.0
220
0.0
230
1.0
 70
    24
 71
     3
 72
    10
 73
     6
 74
     0
 42
0.000000001
 43
0.00000001
 40
0.0
 40
0.0
 40
0.0
 40
0.0
 40
0.2684065359321932
 40
0.632372896450284
 40
0.9999999999999999
 40
0.9999999999999999
 40
0.9999999999999999
 40
0.9999999999999999
 10
59.80543245648014
 20
222.5959090821723
 30
0.0
 10
59.80543245648016
 20
222.9367163483798
 30
0.0
 10
59.80543245648014
 20
223.7396672799377
 30
0.0
 10
59.80543245648011
 20
224.9993931103413
 30
0.0
 10
59.80543245648016
 20
225.8974237379429
 30
0.0
 10
59.80543245648014
 20
226.3486858319048
 30
0.0
  0
ARC
  5
1B8
330
1F
100
AcDbEntity
  8
0
  6
Continuous
 62
     7
370
    25
100
AcDbCircle
 10
66.3054324565
 20
222.5959090822
 30
0.0
 40
6.500000000000016
100
AcDbArc
 50
300.0
 51
0.0
  0
ARC
  5
1B9
330
1F
100
AcDbEntity
  8
0
  6
Continuous
 62
     7
370
    25
100
AcDbCircle
 10
66.3054324565
 20
222.5959090822
 30
0.0
 40
6.50000000000002
100
AcDbArc
 50
240.0
 51
300.0
  0
ARC
  5
1BA
330
1F
100
AcDbEntity
  8
0
  6
Continuous
 62
     7
370
    25
100
AcDbCircle
 10
66.3054324565
 20
222.5959090822
 30
0.0
 40
6.50000000000002
100
AcDbArc
 50
180.0
 51
240.0
  0
SPLINE
  5
1BB
330
1F
100
AcDbEntity
  8
0
  6
Continuous
 62
     7
370
    25
100
AcDbSpline
210
0.0
220
0.0
230
1.0
 70
    24
 71
     3
 72
    10
 73
     6
 74
     0
 42
0.000000001
 43
0.00000001
 40
0.0
 40
0.0
 40
0.0
 40
0.0
 40
0.2572432618847689
 40
0.6263798857723069
 40
1.0
 40
1.0
 40
1.0
 40
1.0
 10
59.80543245648014
 20
218.8431323324397
 30
0.0
 10
59.80543245648014
 20
219.1582739083412
 30
0.0
 10
59.80543245648016
 20
219.9256345103993
 30
0.0
 10
59.80543245648008
 20
221.1780746403714
 30
0.0
 10
59.80543245648014
 20
222.1213995426831
 30
0.0
 10
59.80543245648014
 20
222.5959090821723
 30
0.0
  0
SPLINE
  5
1BC
330
1F
100
AcDbEntity
  8
0
  6
Continuous
 62
     7
370
    25
100
AcDbSpline
210
0.0
220
0.0
230
1.0
 70
    24
 71
     3
 72
    10
 73
     6
 74
     0
 42
0.000000001
 43
0.00000001
 40
0.0
 40
0.0
 40
0.0
 40
0.0
 40
0.0700769119681875
 40
0.5307776640394114
 40
1.0
 40
1.0
 40
1.0
 40
1.0
 10
63.05543245648011
 20
216.9667439575734
 30
0.0
 10
62.97841139953552
 20
217.0112120855337
 30
0.0
 10
62.39503728188779
 20
217.3480232893958
 30
0.0
 10
61.29510011039076
 20
217.9830723114513
 30
0.0
 10
60.30501264620646
 20
218.5546995754193
 30
0.0
 10
59.80543245648011
 20
218.8431323324397
 30
0.0
  0
SPLINE
  5
1BD
330
1F
100
AcDbEntity
  8
0
  6
Continuous
 62
     7
370
    25
100
AcDbSpline
210
0.0
220
0.0
230
1.0
 70
    24
 71
     3
 72
     9
 73
     5
 74
     0
 42
0.000000001
 43
0.00000001
 40
0.0
 40
0.0
 40
0.0
 40
0.0
 40
0.4954579634770073
 40
1.0
 40
1.0
 40
1.0
 40
1.0
 10
66.30543245648012
 20
215.0903555827071
 30
0.0
 10
65.77761816869261
 20
215.3950893038433
 30
0.0
 10
64.7123122765773
 20
216.0101439474254
 30
0.0
 10
63.61106034750104
 20
216.6459520451232
 30
0.0
 10
63.05543245648011
 20
216.9667439575734
 30
0.0
  0
SPLINE
  5
1BE
330
1F
100
AcDbEntity
  8
0
  6
Continuous
 62
     7
370
    25
100
AcDbSpline
210
0.0
220
0.0
230
1.0
 70
    24
 71
     3
 72
    10
 73
     6
 74
     0
 42
0.000000001
 43
0.00000001
 40
0.0
 40
0.0
 40
0.0
 40
0.0
 40
0.0700769119681905
 40
0.530777664039412
 40
0.9999999999999999
 40
0.9999999999999999
 40
0.9999999999999999
 40
0.9999999999999999
 10
69.55543245648015
 20
216.9667439575734
 30
0.0
 10
69.47841139953552
 20
216.9222758296131
 30
0.0
 10
68.89503728188794
 20
216.5854646257509
 30
0.0
 10
67.79510011039073
 20
215.9504156036954
 30
0.0
 10
66.80501264620644
 20
215.3787883397274
 30
0.0
 10
66.30543245648012
 20
215.0903555827071
 30
0.0
  0
SPLINE
  5
1BF
330
1F
100
AcDbEntity
  8
0
  6
Continuous
 62
     7
370
    25
100
AcDbSpline
210
0.0
220
0.0
230
1.0
 70
    24
 71
     3
 72
    10
 73
     6
 74
     0
 42
0.000000001
 43
0.00000001
 40
0.0
 40
0.0
 40
0.0
 40
0.0
 40
0.2572432618847676
 40
0.6263798857723062
 40
0.9999999999999999
 40
0.9999999999999999
 40
0.9999999999999999
 40
0.9999999999999999
 10
72.80543245648015
 20
218.8431323324397
 30
0.0
 10
72.80543245648015
 20
219.1582739083412
 30
0.0
 10
72.80543245648015
 20
219.9256345103994
 30
0.0
 10
72.80543245648023
 20
221.1780746403714
 30
0.0
 10
72.80543245648015
 20
222.1213995426831
 30
0.0
 10
72.80543245648015
 20
222.5959090821723
 30
0.0
  0
SPLINE
  5
1C0
330
1F
100
AcDbEntity
  8
0
  6
Continuous
 62
     7
370
    25
100
AcDbSpline
210
0.0
220
0.0
230
1.0
 70
    24
 71
     3
 72
     9
 73
     5
 74
     0
 42
0.000000001
 43
0.00000001
 40
0.0
 40
0.0
 40
0.0
 40
0.0
 40
0.4954579634770051
 40
1.0
 40
1.0
 40
1.0
 40
1.0
 10
72.80543245648015
 20
218.8431323324397
 30
0.0
 10
72.27761816869264
 20
218.5383986113034
 30
0.0
 10
71.21231227657736
 20
217.9233439677213
 30
0.0
 10
70.11106034750112
 20
217.2875358700236
 30
0.0
 10
69.55543245648015
 20
216.9667439575734
 30
0.0
  0
LINE
  5
1C1
330
1F
100
AcDbEntity
  8
0
  6
Continuous
 62
     7
370
    25
100
AcDbLine
 10
88.8054324565
 20
246.5959090822
 30
0.0
 11
76.8054324565
 21
246.5959090822
 31
0.0
  0
LINE
  5
1C2
330
1F
100
AcDbEntity
  8
0
  6
Continuous
 62
     7
370
    25
100
AcDbLine
 10
88.8054324565
 20
233.5959090822
 30
0.0
 11
88.8054324565
 21
246.5959090822
 31
0.0
  0
LINE
  5
1C3
330
1F
100
AcDbEntity
  8
0
  6
Continuous
 62
     7
370
    25
100
AcDbLine
 10
83.0400936572
 20
216.3651277078
 30
0.0
 11
88.8054324565
 21
233.5959090822
 31
0.0
  0
LINE
  5
1C4
330
1F
100
AcDbEntity
  8
0
  6
Continuous
 62
     7
370
    25
100
AcDbLine
 10
189.8054324565
 20
246.5959090822
 30
0.0
 11
189.8054324565
 21
233.5959090822
 31
0.0
  0
LINE
  5
1C5
330
1F
100
AcDbEntity
  8
0
  6
Continuous
 62
     7
370
    25
100
AcDbLine
 10
201.8054324565
 20
246.5959090822
 30
0.0
 11
189.8054324565
 21
246.5959090822
 31
0.0
  0
ARC
  5
1C6
330
1F
100
AcDbEntity
  8
0
  6
Continuous
 62
     7
370
    25
100
AcDbCircle
 10
191.7774766349
 20
215.0959090822
 30
0.0
 40
4.000000000000028
100
AcDbArc
 50
270.0
 51
18.5
  0
LINE
  5
1C7
330
1F
100
AcDbEntity
  8
0
  6
Continuous
 62
     7
370
    25
100
AcDbLine
 10
189.8054324565
 20
233.5959090822
 30
0.0
 11
195.5707712557
 21
216.3651277078
 31
0.0
  0
ARC
  5
1C8
330
1F
100
AcDbEntity
  8
0
  6
Continuous
 62
     7
370
    25
100
AcDbCircle
 10
86.8333882781
 20
215.0959090822
 30
0.0
 40
4.000000000000028
100
AcDbArc
 50
161.5
 51
270.0
  0
LINE
  5
1C9
330
1F
100
AcDbEntity
  8
0
  6
Continuous
 62
     7
370
    25
100
AcDbLine
 10
205.8054324565
 20
259.0959090822
 30
0.0
 11
201.8054324565
 21
259.0959090822
 31
0.0
  0
LINE
  5
1CA
330
1F
100
AcDbEntity
  8
0
  6
Continuous
 62
     7
370
    25
100
AcDbLine
 10
221.3054324565
 20
244.0959090822
 30
0.0
 11
221.1367948027
 21
244.2591068116
 31
0.0
  0
LINE
  5
1CB
330
1F
100
AcDbEntity
  8
0
  6
Continuous
 62
     7
370
    25
100
AcDbLine
 10
218.7220991231
 20
246.5959090822
 30
0.0
 11
205.8054324565
 21
259.0959090822
 31
0.0
  0
LINE
  5
1CC
330
1F
100
AcDbEntity
  8
0
  6
Continuous
 62
     7
370
    25
100
AcDbLine
 10
237.8422651439
 20
197.3202966233
 30
0.0
 11
221.3054324565
 21
244.0959090822
 31
0.0
  0
LINE
  5
1CD
330
1F
100
AcDbEntity
  8
0
  6
Continuous
 62
     7
370
    25
100
AcDbLine
 10
72.8054324565
 20
259.0959090822
 30
0.0
 11
59.8887657898
 21
246.5959090822
 31
0.0
  0
LINE
  5
1CE
330
1F
100
AcDbEntity
  8
0
  6
Continuous
 62
     7
370
    25
100
AcDbLine
 10
57.4740701102
 20
244.2591068116
 30
0.0
 11
57.3054324565
 21
244.0959090822
 31
0.0
  0
ARC
  5
1CF
330
1F
100
AcDbEntity
  8
0
  6
Continuous
 62
     7
370
    25
100
AcDbCircle
 10
80.8054324565
 20
242.0959090822
 30
0.0
 40
4.000000000000014
100
AcDbArc
 50
180.0
 51
270.0
  0
LINE
  5
1D0
330
1F
100
AcDbEntity
  8
0
  6
Continuous
 62
     7
370
    25
100
AcDbLine
 10
85.3327133875
 20
238.0959090822
 30
0.0
 11
80.8054324565
 21
238.0959090822
 31
0.0
  0
ARC
  5
1D1
330
1F
100
AcDbEntity
  8
0
  6
Continuous
 62
     7
370
    25
100
AcDbCircle
 10
85.3327133875
 20
235.5959090822
 30
0.0
 40
2.5
100
AcDbArc
 50
341.5
 51
90.0
  0
LINE
  5
1D2
330
1F
100
AcDbEntity
  8
0
  6
Continuous
 62
     7
370
    25
100
AcDbLine
 10
81.5344147195
 20
216.3651277078
 30
0.0
 11
87.7035225255
 21
234.8026474412
 31
0.0
  0
ARC
  5
1D3
330
1F
100
AcDbEntity
  8
0
  6
Continuous
 62
     7
370
    25
100
AcDbCircle
 10
85.3277093403
 20
215.0959090822
 30
0.0
 40
4.000000000000028
100
AcDbArc
 50
161.5
 51
270.0
  0
LINE
  5
1D4
330
1F
100
AcDbEntity
  8
0
  6
Continuous
 62
     7
370
    25
100
AcDbLine
 10
193.2831555726
 20
211.0959090822
 30
0.0
 11
85.3277093403
 21
211.0959090822
 31
0.0
  0
ARC
  5
1D5
330
1F
100
AcDbEntity
  8
0
  6
Continuous
 62
     7
370
    25
100
AcDbCircle
 10
193.2831555726
 20
215.0959090822
 30
0.0
 40
4.000000000000028
100
AcDbArc
 50
270.0
 51
18.5
  0
LINE
  5
1D6
330
1F
100
AcDbEntity
  8
0
  6
Continuous
 62
     7
370
    25
100
AcDbLine
 10
190.9073423875
 20
234.8026474412
 30
0.0
 11
197.0764501935
 21
216.3651277078
 31
0.0
  0
ARC
  5
1D7
330
1F
100
AcDbEntity
  8
0
  6
Continuous
 62
     7
370
    25
100
AcDbCircle
 10
193.2781515255
 20
235.5959090822
 30
0.0
 40
2.500000000000014
100
AcDbArc
 50
90.0
 51
198.5
  0
LINE
  5
1D8
330
1F
100
AcDbEntity
  8
0
  6
Continuous
 62
     7
370
    25
100
AcDbLine
 10
197.8054324565
 20
238.0959090822
 30
0.0
 11
193.2781515255
 21
238.0959090822
 31
0.0
  0
ARC
  5
1D9
330
1F
100
AcDbEntity
  8
0
  6
Continuous
 62
     7
370
    25
100
AcDbCircle
 10
197.8054324565
 20
242.0959090822
 30
0.0
 40
4.0
100
AcDbArc
 50
270.0
 51
0.0
  0
LINE
  5
1DA
330
1F
100
AcDbEntity
  8
0
  6
Continuous
 62
     7
370
    25
100
AcDbLine
 10
201.8054324565
 20
259.0959090822
 30
0.0
 11
201.8054324565
 21
242.0959090822
 31
0.0
  0
LINE
  5
1DB
330
1F
100
AcDbEntity
  8
0
  6
Continuous
 62
     7
370
    25
100
AcDbLine
 10
76.8054324565
 20
259.0959090822
 30
0.0
 11
72.8054324565
 21
259.0959090822
 31
0.0
  0
LINE
  5
1DC
330
1F
100
AcDbEntity
  8
0
  6
Continuous
 62
     7
370
    25
100
AcDbLine
 10
76.8054324565
 20
242.0959090822
 30
0.0
 11
76.8054324565
 21
259.0959090822
 31
0.0
  0
LINE
  5
1DD
330
1F
100
AcDbEntity
  8
0
  6
Continuous
 62
     7
370
    25
100
AcDbLine
 10
57.3054324565
 20
244.0959090822
 30
0.0
 11
40.7686748447
 21
197.3205089802
 31
0.0
  0
LINE
  5
1DE
330
1F
100
AcDbEntity
  8
0
  6
Continuous
 62
     7
370
    25
100
AcDbLine
 10
39.8054324565
 20
194.5959090822
 30
0.0
 11
39.8054324565
 21
196.5959090822
 31
0.0
  0
LINE
  5
1DF
330
1F
100
AcDbEntity
  8
0
  6
Continuous
 62
     7
370
    25
100
AcDbLine
 10
39.8054324565
 20
196.5959090822
 30
0.0
 11
41.8054324565
 21
196.5959090822
 31
0.0
  0
LINE
  5
1E0
330
1F
100
AcDbEntity
  8
0
  6
Continuous
 62
     7
370
    25
100
AcDbLine
 10
41.8054324565
 20
194.5959090822
 30
0.0
 11
39.8054324565
 21
194.5959090822
 31
0.0
  0
LINE
  5
1E1
330
1F
100
AcDbEntity
  8
0
  6
Continuous
 62
     7
370
    25
100
AcDbLine
 10
238.8054324565
 20
196.5959090822
 30
0.0
 11
238.8054324565
 21
194.5959090822
 31
0.0
  0
LINE
  5
1E2
330
1F
100
AcDbEntity
  8
0
  6
Continuous
 62
     7
370
    25
100
AcDbLine
 10
236.8054324565
 20
196.5959090822
 30
0.0
 11
238.8054324565
 21
196.5959090822
 31
0.0
  0
LINE
  5
1E3
330
1F
100
AcDbEntity
  8
0
  6
Continuous
 62
     7
370
    25
100
AcDbLine
 10
238.8054324565
 20
194.5959090822
 30
0.0
 11
236.8054324565
 21
194.5959090822
 31
0.0
  0
LINE
  5
1E4
330
1F
100
AcDbEntity
  8
0
  6
Continuous
 62
     7
370
    25
100
AcDbLine
 10
65.3054324565
 20
196.5959090822
 30
0.0
 11
65.3054324565
 21
194.5959090822
 31
0.0
  0
LINE
  5
1E5
330
1F
100
AcDbEntity
  8
0
  6
Continuous
 62
     7
370
    25
100
AcDbLine
 10
76.8054324565
 20
196.5959090822
 30
0.0
 11
76.8054324565
 21
194.5959090822
 31
0.0
  0
LINE
  5
1E6
330
1F
100
AcDbEntity
  8
0
  6
Continuous
 62
     7
370
    25
100
AcDbLine
 10
65.3054324565
 20
196.5959090822
 30
0.0
 11
76.8054324565
 21
196.5959090822
 31
0.0
  0
LINE
  5
1E7
330
1F
100
AcDbEntity
  8
0
  6
Continuous
 62
     7
370
    25
100
AcDbLine
 10
65.3054324565
 20
194.5959090822
 30
0.0
 11
76.8054324565
 21
194.5959090822
 31
0.0
  0
LINE
  5
1E8
330
1F
100
AcDbEntity
  8
0
  6
Continuous
 62
     7
370
    25
100
AcDbLine
 10
65.3054324565
 20
196.5959090822
 30
0.0
 11
41.8054324565
 21
196.5959090822
 31
0.0
  0
LINE
  5
1E9
330
1F
100
AcDbEntity
  8
0
  6
Continuous
 62
     7
370
    25
100
AcDbLine
 10
65.3054324565
 20
194.5959090822
 30
0.0
 11
41.8054324565
 21
194.5959090822
 31
0.0
  0
LINE
  5
1EA
330
1F
100
AcDbEntity
  8
0
  6
Continuous
 62
     7
370
    25
100
AcDbLine
 10
213.3054324565
 20
196.5959090822
 30
0.0
 11
213.3054324565
 21
194.5959090822
 31
0.0
  0
LINE
  5
1EB
330
1F
100
AcDbEntity
  8
0
  6
Continuous
 62
     7
370
    25
100
AcDbLine
 10
236.8054324565
 20
196.5959090822
 30
0.0
 11
213.3054324565
 21
196.5959090822
 31
0.0
  0
LINE
  5
1EC
330
1F
100
AcDbEntity
  8
0
  6
Continuous
 62
     7
370
    25
100
AcDbLine
 10
236.8054324565
 20
194.5959090822
 30
0.0
 11
213.3054324565
 21
194.5959090822
 31
0.0
  0
LINE
  5
1ED
330
1F
100
AcDbEntity
  8
0
  6
Continuous
 62
     7
370
    25
100
AcDbLine
 10
201.8054324565
 20
196.5959090822
 30
0.0
 11
201.8054324565
 21
194.5959090822
 31
0.0
  0
LINE
  5
1EE
330
1F
100
AcDbEntity
  8
0
  6
Continuous
 62
     7
370
    25
100
AcDbLine
 10
213.3054324565
 20
196.5959090822
 30
0.0
 11
201.8054324565
 21
196.5959090822
 31
0.0
  0
LINE
  5
1EF
330
1F
100
AcDbEntity
  8
0
  6
Continuous
 62
     7
370
    25
100
AcDbLine
 10
213.3054324565
 20
194.5959090822
 30
0.0
 11
201.8054324565
 21
194.5959090822
 31
0.0
  0
LINE
  5
1F0
330
1F
100
AcDbEntity
  8
0
  6
Continuous
 62
     7
370
    25
100
AcDbLine
 10
76.8054324565
 20
196.5959090822
 30
0.0
 11
201.8054324565
 21
196.5959090822
 31
0.0
  0
LINE
  5
1F1
330
1F
100
AcDbEntity
  8
0
  6
Continuous
 62
     7
370
    25
100
AcDbLine
 10
76.8054324565
 20
194.5959090822
 30
0.0
 11
201.8054324565
 21
194.5959090822
 31
0.0
  0
SPLINE
  5
1F2
330
1F
100
AcDbEntity
  8
0
  6
Continuous
 62
     7
370
    25
100
AcDbSpline
210
0.0
220
0.0
230
1.0
 70
     8
 71
     3
 72
    11
 73
     7
 74
     0
 42
0.000000001
 43
0.00000001
 40
0.0
 40
0.0
 40
0.0
 40
0.0
 40
0.2472454926704253
 40
0.5282132489579143
 40
0.809331241898613
 40
0.9999999999999999
 40
0.9999999999999999
 40
0.9999999999999999
 40
0.9999999999999999
 10
238.8054324564802
 20
196.5959090821722
 30
0.0
 10
238.7252367693988
 20
196.6068061714049
 30
0.0
 10
238.553907359232
 20
196.6300866237426
 30
0.0
 10
238.2910257881276
 20
196.8205231036707
 30
0.0
 10
238.0463131554706
 20
197.0773240712702
 30
0.0
 10
237.8935659242089
 20
197.2590614189809
 30
0.0
 10
237.8318343795571
 20
197.3325090821722
 30
0.0
  0
SPLINE
  5
1F3
330
1F
100
AcDbEntity
  8
0
  6
Continuous
 62
     7
370
    25
100
AcDbSpline
210
0.0
220
0.0
230
1.0
 70
     8
 71
     3
 72
    11
 73
     7
 74
     0
 42
0.000000001
 43
0.00000001
 40
0.0
 40
0.0
 40
0.0
 40
0.0
 40
0.2472454926703005
 40
0.5282132489579687
 40
0.8093312418985484
 40
1.0
 40
1.0
 40
1.0
 40
1.0
 10
40.77903053340319
 20
197.3325090821722
 30
0.0
 10
40.69883484632188
 20
197.2371132548993
 30
0.0
 10
40.5275054361549
 20
197.0333103895096
 30
0.0
 10
40.26462386505091
 20
196.7723419184102
 30
0.0
 10
40.01991123239355
 20
196.6185713119933
 30
0.0
 10
39.86716400113195
 20
196.6024317529873
 30
0.0
 10
39.80543245648015
 20
196.5959090821722
 30
0.0
  0
LINE
  5
1F4
330
1F
100
AcDbEntity
  8
0
  6
Continuous
 62
     7
370
    25
100
AcDbLine
 10
58.3054324565
 20
246.5959090822
 30
0.0
 11
40.7790305334
 21
197.3325090822
 31
0.0
  0
ARC
  5
1F5
330
1F
100
AcDbEntity
  8
0
  6
Continuous
 62
     7
370
    25
100
AcDbCircle
 10
78.8054324565
 20
240.0959090822
 30
0.0
 40
4.0
100
AcDbArc
 50
180.0
 51
270.0
  0
LINE
  5
1F6
330
1F
100
AcDbEntity
  8
0
  6
Continuous
 62
     7
370
    25
100
AcDbLine
 10
85.1883814263
 20
236.0959090822
 30
0.0
 11
78.8054324565
 21
236.0959090822
 31
0.0
  0
LINE
  5
1F7
330
1F
100
AcDbEntity
  8
0
  6
Continuous
 62
     7
370
    25
100
AcDbLine
 10
78.6954324565
 20
209.0959090822
 30
0.0
 11
87.0794185775
 21
233.4447727733
 31
0.0
  0
LINE
  5
1F8
330
1F
100
AcDbEntity
  8
0
  6
Continuous
 62
     7
370
    25
100
AcDbLine
 10
203.8054324565
 20
244.5959090822
 30
0.0
 11
203.8054324565
 21
240.0959090822
 31
0.0
  0
LINE
  5
1F9
330
1F
100
AcDbEntity
  8
0
  6
Continuous
 62
     7
370
    25
100
AcDbLine
 10
220.3054324565
 20
246.5959090822
 30
0.0
 11
205.8054324565
 21
246.5959090822
 31
0.0
  0
ARC
  5
1FA
330
1F
100
AcDbEntity
  8
0
  6
Continuous
 62
     7
370
    25
100
AcDbCircle
 10
199.8054324565
 20
240.0959090822
 30
0.0
 40
4.0
100
AcDbArc
 50
270.0
 51
0.0
  0
ARC
  5
1FB
330
1F
100
AcDbEntity
  8
0
  6
Continuous
 62
     7
370
    25
100
AcDbCircle
 10
85.1883814263
 20
234.0959090822
 30
0.0
 40
2.0
100
AcDbArc
 50
341.0
 51
90.0
  0
LINE
  5
1FC
330
1F
100
AcDbEntity
  8
0
  6
Continuous
 62
     7
370
    25
100
AcDbLine
 10
74.8054324565
 20
240.0959090822
 30
0.0
 11
74.8054324565
 21
244.5959090822
 31
0.0
  0
ARC
  5
1FD
330
1F
100
AcDbEntity
  8
0
  6
Continuous
 62
     7
370
    25
100
AcDbCircle
 10
193.4224834866
 20
234.0959090822
 30
0.0
 40
2.000000000000012
100
AcDbArc
 50
90.0
 51
199.0
  0
ARC
  5
1FE
330
1F
100
AcDbEntity
  8
0
  6
Continuous
 62
     7
370
    25
100
AcDbCircle
 10
205.8054324565
 20
244.5959090822
 30
0.0
 40
2.000000000000227
100
AcDbArc
 50
90.0
 51
180.0
  0
LINE
  5
1FF
330
1F
100
AcDbEntity
  8
0
  6
Continuous
 62
     7
370
    25
100
AcDbLine
 10
199.9154324565
 20
209.0959090822
 30
0.0
 11
78.6954324565
 21
209.0959090822
 31
0.0
  0
ARC
  5
200
330
1F
100
AcDbEntity
  8
0
  6
Continuous
 62
     7
370
    25
100
AcDbCircle
 10
72.8054324565
 20
244.5959090822
 30
0.0
 40
2.0
100
AcDbArc
 50
0.0
 51
90.0
  0
LINE
  5
201
330
1F
100
AcDbEntity
  8
0
  6
Continuous
 62
     7
370
    25
100
AcDbLine
 10
191.5314463354
 20
233.4447727733
 30
0.0
 11
199.9154324565
 21
209.0959090822
 31
0.0
  0
LINE
  5
202
330
1F
100
AcDbEntity
  8
0
  6
Continuous
 62
     7
370
    25
100
AcDbLine
 10
237.8318343796
 20
197.3325090822
 30
0.0
 11
220.3054324565
 21
246.5959090822
 31
0.0
  0
LINE
  5
203
330
1F
100
AcDbEntity
  8
0
  6
Continuous
 62
     7
370
    25
100
AcDbLine
 10
72.8054324565
 20
246.5959090822
 30
0.0
 11
58.3054324565
 21
246.5959090822
 31
0.0
  0
LINE
  5
204
330
1F
100
AcDbEntity
  8
0
  6
Continuous
 62
     7
370
    25
100
AcDbLine
 10
199.8054324565
 20
236.0959090822
 30
0.0
 11
193.4224834866
 21
236.0959090822
 31
0.0
  0
LINE
  5
205
330
1F
100
AcDbEntity
  8
0
  6
Continuous
 62
     8
370
    18
100
AcDbLine
 10
41.8054324565
 20
196.5959090822
 30
0.0
 11
41.8054324565
 21
194.5959090822
 31
0.0
  0
LINE
  5
206
330
1F
100
AcDbEntity
  8
0
  6
Continuous
 62
     8
370
    18
100
AcDbLine
 10
236.8054324565
 20
194.5959090822
 30
0.0
 11
236.8054324565
 21
196.5959090822
 31
0.0
  0
LINE
  5
207
330
1F
100
AcDbEntity
  8
0
  6
Continuous
 62
     8
370
    18
100
AcDbLine
 10
237.8318343796
 20
197.3325090822
 30
0.0
 11
40.7790305334
 21
197.3325090822
 31
0.0
  0
DIMENSION
  5
208
330
1F
100
AcDbEntity
  8
0
  6
Continuous
 62
     7
370
    18
100
AcDbDimension
  2
_D
 10
191.4224834866
 20
257.8035229734
 30
0.0
 11
139.3054324565
 21
257.8035229734
 31
0.0
 70
   160
  1
<>
 71
     2
 42
-1.0
  3
SLDDIMSTYLE0
100
AcDbAlignedDimension
 13
87.1883814263
 23
234.0959090822
 33
0.0
 14
191.4224834866
 24
234.0959090822
 34
0.0
100
AcDbRotatedDimension
  0
DIMENSION
  5
213
330
1F
100
AcDbEntity
  8
0
  6
Continuous
 62
     7
370
    18
100
AcDbDimension
  2
_D_1
 10
257.192608727
 20
259.0959090822
 30
0.0
 11
257.192608727
 21
226.8459090822
 31
0.0
 70
   160
  1
<>
 71
     2
 42
-1.0
  3
SLDDIMSTYLE1
100
AcDbAlignedDimension
 13
213.3054324565
 23
194.5959090822
 33
0.0
 14
205.8054324565
 24
259.0959090822
 34
0.0
 50
90.0
100
AcDbRotatedDimension
  0
LINE
  5
21E
330
1F
100
AcDbEntity
  8
0
  6
Continuous
 62
     7
370
    25
100
AcDbLine
 10
339.6563709677
 20
216.0959090822
 30
0.0
 11
340.2563709677
 21
216.0959090822
 31
0.0
  0
LINE
  5
21F
330
1F
100
AcDbEntity
  8
0
  6
Continuous
 62
     7
370
    25
100
AcDbLine
 10
340.2563709677
 20
229.0959090822
 30
0.0
 11
339.6563709677
 21
229.0959090822
 31
0.0
  0
LINE
  5
220
330
1F
100
AcDbEntity
  8
0
  6
Continuous
 62
     7
370
    25
100
AcDbLine
 10
345.2563709677
 20
218.5959090822
 30
0.0
 11
347.2563709677
 21
218.5959090822
 31
0.0
  0
LINE
  5
221
330
1F
100
AcDbEntity
  8
0
  6
Continuous
 62
     7
370
    25
100
AcDbLine
 10
360.1563709677
 20
218.5959090822
 30
0.0
 11
364.5658709677
 21
218.5959090822
 31
0.0
  0
LINE
  5
222
330
1F
100
AcDbEntity
  8
0
  6
Continuous
 62
     7
370
    25
100
AcDbLine
 10
364.5658709677
 20
226.5959090822
 30
0.0
 11
360.1563709677
 21
226.5959090822
 31
0.0
  0
LINE
  5
223
330
1F
100
AcDbEntity
  8
0
  6
Continuous
 62
     7
370
    25
100
AcDbLine
 10
347.2563709677
 20
226.5959090822
 30
0.0
 11
345.2563709677
 21
226.5959090822
 31
0.0
  0
LINE
  5
224
330
1F
100
AcDbEntity
  8
0
  6
Continuous
 62
     7
370
    25
100
AcDbLine
 10
364.5658709677
 20
218.5959090822
 30
0.0
 11
365.2563709677
 21
219.2864090822
 31
0.0
  0
LINE
  5
225
330
1F
100
AcDbEntity
  8
0
  6
Continuous
 62
     7
370
    25
100
AcDbLine
 10
365.2563709677
 20
225.9054090822
 30
0.0
 11
364.5658709677
 21
226.5959090822
 31
0.0
  0
LINE
  5
226
330
1F
100
AcDbEntity
  8
0
  6
Continuous
 62
     7
370
    25
100
AcDbLine
 10
335.5369275513
 20
230.1014625816
 30
0.0
 11
334.9563709677
 21
229.0959090822
 31
0.0
  0
LINE
  5
227
330
1F
100
AcDbEntity
  8
0
  6
Continuous
 62
     7
370
    25
100
AcDbLine
 10
334.9563709677
 20
216.0959090822
 30
0.0
 11
335.5369275513
 21
215.0903555827
 31
0.0
  0
LINE
  5
228
330
1F
100
AcDbEntity
  8
0
  6
Continuous
 62
     7
370
    25
100
AcDbLine
 10
352.2563709677
 20
216.0959090822
 30
0.0
 11
352.8369275513
 21
215.0903555827
 31
0.0
  0
LINE
  5
229
330
1F
100
AcDbEntity
  8
0
  6
Continuous
 62
     7
370
    25
100
AcDbLine
 10
352.8369275513
 20
230.1014625816
 30
0.0
 11
352.2563709677
 21
229.0959090822
 31
0.0
  0
LINE
  5
22A
330
1F
100
AcDbEntity
  8
0
  6
Continuous
 62
     7
370
    25
100
AcDbLine
 10
359.5758143841
 20
215.0903555827
 30
0.0
 11
360.1563709677
 21
216.0959090822
 31
0.0
  0
LINE
  5
22B
330
1F
100
AcDbEntity
  8
0
  6
Continuous
 62
     7
370
    25
100
AcDbLine
 10
360.1563709677
 20
229.0959090822
 30
0.0
 11
359.5758143841
 21
230.1014625816
 31
0.0
  0
LINE
  5
22C
330
1F
100
AcDbEntity
  8
0
  6
Continuous
 62
     7
370
    25
100
AcDbLine
 10
339.6563709677
 20
222.5959090822
 30
0.0
 11
339.6563709677
 21
218.8431323324
 31
0.0
  0
LINE
  5
22D
330
1F
100
AcDbEntity
  8
0
  6
Continuous
 62
     7
370
    25
100
AcDbLine
 10
339.6563709677
 20
218.8431323324
 30
0.0
 11
335.5369275513
 21
218.8431323324
 31
0.0
  0
SPLINE
  5
22E
330
1F
100
AcDbEntity
  8
0
  6
Continuous
 62
     7
370
    25
100
AcDbSpline
210
0.0
220
0.0
230
1.0
 70
     8
 71
     3
 72
    10
 73
     6
 74
     0
 42
0.000000001
 43
0.00000001
 40
0.0
 40
0.0
 40
0.0
 40
0.0
 40
0.2234127051534883
 40
0.609201371335338
 40
1.0
 40
1.0
 40
1.0
 40
1.0
 10
335.5369275513425
 20
218.8431323324396
 30
0.0
 10
335.4621292039475
 20
219.1166617461159
 30
0.0
 10
335.2581692018729
 20
219.8625212700748
 30
0.0
 10
335.0148320566135
 20
221.1132718792521
 30
0.0
 10
334.9759416280532
 20
222.0995757154261
 30
0.0
 10
334.9563709677417
 20
222.5959090821722
 30
0.0
  0
SPLINE
  5
22F
330
1F
100
AcDbEntity
  8
0
  6
Continuous
 62
     7
370
    25
100
AcDbSpline
210
0.0
220
0.0
230
1.0
 70
     8
 71
     3
 72
    10
 73
     6
 74
     0
 42
0.000000001
 43
0.00000001
 40
0.0
 40
0.0
 40
0.0
 40
0.0
 40
0.2416195575674898
 40
0.6187318536088843
 40
1.0
 40
1.0
 40
1.0
 40
1.0
 10
334.9563709677419
 20
222.5959090821722
 30
0.0
 10
334.9640780804046
 20
222.9026810909262
 30
0.0
 10
334.9838142149783
 20
223.6882533166294
 30
0.0
 10
335.1666671670274
 20
224.9494519749918
 30
0.0
 10
335.413057358553
 20
225.8805737276783
 30
0.0
 10
335.5369275513425
 20
226.3486858319048
 30
0.0
  0
LINE
  5
230
330
1F
100
AcDbEntity
  8
0
  6
Continuous
 62
     7
370
    25
100
AcDbLine
 10
339.6563709677
 20
226.3486858319
 30
0.0
 11
335.5369275513
 21
226.3486858319
 31
0.0
  0
LINE
  5
231
330
1F
100
AcDbEntity
  8
0
  6
Continuous
 62
     7
370
    25
100
AcDbLine
 10
339.6563709677
 20
226.3486858319
 30
0.0
 11
339.6563709677
 21
222.5959090822
 31
0.0
  0
SPLINE
  5
232
330
1F
100
AcDbEntity
  8
0
  6
Continuous
 62
     7
370
    25
100
AcDbSpline
210
0.0
220
0.0
230
1.0
 70
     8
 71
     3
 72
     9
 73
     5
 74
     0
 42
0.000000001
 43
0.00000001
 40
0.0
 40
0.0
 40
0.0
 40
0.0
 40
0.4954579634770047
 40
1.0
 40
1.0
 40
1.0
 40
1.0
 10
335.5369275513425
 20
226.3486858319048
 30
0.0
 10
335.3746631385758
 20
226.653419553041
 30
0.0
 10
335.0471592437387
 20
227.2684741966231
 30
0.0
 10
334.9868164458686
 20
227.9042822943208
 30
0.0
 10
334.9563709677417
 20
228.225074206771
 30
0.0
  0
LINE
  5
233
330
1F
100
AcDbEntity
  8
0
  6
Continuous
 62
     7
370
    25
100
AcDbLine
 10
334.9563709677
 20
222.5959090822
 30
0.0
 11
334.9563709677
 21
228.2250742068
 31
0.0
  0
SPLINE
  5
234
330
1F
100
AcDbEntity
  8
0
  6
Continuous
 62
     7
370
    25
100
AcDbSpline
210
0.0
220
0.0
230
1.0
 70
     8
 71
     3
 72
    10
 73
     6
 74
     0
 42
0.000000001
 43
0.00000001
 40
0.0
 40
0.0
 40
0.0
 40
0.0
 40
0.0700769119681875
 40
0.5307776640394051
 40
0.9999999999999999
 40
0.9999999999999999
 40
0.9999999999999999
 40
0.9999999999999999
 10
334.9563709677419
 20
216.9667439575734
 30
0.0
 10
334.9570639059703
 20
217.0112120855336
 30
0.0
 10
334.9623123697497
 20
217.3480232893958
 30
0.0
 10
335.089103580766
 20
217.9830723114513
 30
0.0
 10
335.3867437277243
 20
218.5546995754193
 30
0.0
 10
335.5369275513425
 20
218.8431323324396
 30
0.0
  0
LINE
  5
235
330
1F
100
AcDbEntity
  8
0
  6
Continuous
 62
     7
370
    25
100
AcDbLine
 10
334.9563709677
 20
222.5959090822
 30
0.0
 11
334.9563709677
 21
216.9667439576
 31
0.0
  0
LINE
  5
236
330
1F
100
AcDbEntity
  8
0
  6
Continuous
 62
     7
370
    25
100
AcDbLine
 10
339.6563709677
 20
216.9667439576
 30
0.0
 11
339.6563709677
 21
215.0903555827
 31
0.0
  0
LINE
  5
237
330
1F
100
AcDbEntity
  8
0
  6
Continuous
 62
     7
370
    25
100
AcDbLine
 10
339.6563709677
 20
215.0903555827
 30
0.0
 11
335.5369275513
 21
215.0903555827
 31
0.0
  0
SPLINE
  5
238
330
1F
100
AcDbEntity
  8
0
  6
Continuous
 62
     7
370
    25
100
AcDbSpline
210
0.0
220
0.0
230
1.0
 70
     8
 71
     3
 72
     9
 73
     5
 74
     0
 42
0.000000001
 43
0.00000001
 40
0.0
 40
0.0
 40
0.0
 40
0.0
 40
0.4954579634770042
 40
1.0
 40
1.0
 40
1.0
 40
1.0
 10
335.5369275513425
 20
215.090355582707
 30
0.0
 10
335.3746631385756
 20
215.3950893038433
 30
0.0
 10
335.0471592437385
 20
216.0101439474254
 30
0.0
 10
334.9868164458686
 20
216.6459520451231
 30
0.0
 10
334.9563709677417
 20
216.9667439575734
 30
0.0
  0
LINE
  5
239
330
1F
100
AcDbEntity
  8
0
  6
Continuous
 62
     7
370
    25
100
AcDbLine
 10
339.6563709677
 20
218.8431323324
 30
0.0
 11
339.6563709677
 21
216.9667439576
 31
0.0
  0
LINE
  5
23A
330
1F
100
AcDbEntity
  8
0
  6
Continuous
 62
     7
370
    25
100
AcDbLine
 10
339.6563709677
 20
228.2250742068
 30
0.0
 11
339.6563709677
 21
226.3486858319
 31
0.0
  0
SPLINE
  5
23B
330
1F
100
AcDbEntity
  8
0
  6
Continuous
 62
     7
370
    25
100
AcDbSpline
210
0.0
220
0.0
230
1.0
 70
     8
 71
     3
 72
    10
 73
     6
 74
     0
 42
0.000000001
 43
0.00000001
 40
0.0
 40
0.0
 40
0.0
 40
0.0
 40
0.0700769119681883
 40
0.5307776640394055
 40
1.0
 40
1.0
 40
1.0
 40
1.0
 10
334.9563709677417
 20
228.225074206771
 30
0.0
 10
334.9570639059702
 20
228.2695423347313
 30
0.0
 10
334.9623123697496
 20
228.6063535385934
 30
0.0
 10
335.0891035807659
 20
229.241402560649
 30
0.0
 10
335.3867437277244
 20
229.813029824617
 30
0.0
 10
335.5369275513425
 20
230.1014625816373
 30
0.0
  0
LINE
  5
23C
330
1F
100
AcDbEntity
  8
0
  6
Continuous
 62
     7
370
    25
100
AcDbLine
 10
339.6563709677
 20
230.1014625816
 30
0.0
 11
335.5369275513
 21
230.1014625816
 31
0.0
  0
LINE
  5
23D
330
1F
100
AcDbEntity
  8
0
  6
Continuous
 62
     7
370
    25
100
AcDbLine
 10
339.6563709677
 20
230.1014625816
 30
0.0
 11
339.6563709677
 21
228.2250742068
 31
0.0
  0
LINE
  5
23E
330
1F
100
AcDbEntity
  8
0
  6
Continuous
 62
     7
370
    25
100
AcDbLine
 10
364.5658709677
 20
222.5959090822
 30
0.0
 11
364.5658709677
 21
226.5959090822
 31
0.0
  0
LINE
  5
23F
330
1F
100
AcDbEntity
  8
0
  6
Continuous
 62
     7
370
    25
100
AcDbLine
 10
364.5658709677
 20
218.5959090822
 30
0.0
 11
364.5658709677
 21
222.5959090822
 31
0.0
  0
LINE
  5
240
330
1F
100
AcDbEntity
  8
0
  6
Continuous
 62
     7
370
    25
100
AcDbLine
 10
365.2563709677
 20
222.5959090822
 30
0.0
 11
365.2563709677
 21
225.9054090822
 31
0.0
  0
LINE
  5
241
330
1F
100
AcDbEntity
  8
0
  6
Continuous
 62
     7
370
    25
100
AcDbLine
 10
365.2563709677
 20
219.2864090822
 30
0.0
 11
365.2563709677
 21
222.5959090822
 31
0.0
  0
LINE
  5
242
330
1F
100
AcDbEntity
  8
0
  6
Continuous
 62
     7
370
    25
100
AcDbLine
 10
334.9563709677
 20
229.0959090822
 30
0.0
 11
334.9563709677
 21
228.2250742068
 31
0.0
  0
LINE
  5
243
330
1F
100
AcDbEntity
  8
0
  6
Continuous
 62
     7
370
    25
100
AcDbLine
 10
334.9563709677
 20
216.9667439576
 30
0.0
 11
334.9563709677
 21
216.0959090822
 31
0.0
  0
SPLINE
  5
244
330
1F
100
AcDbEntity
  8
0
  6
Continuous
 62
     7
370
    25
100
AcDbSpline
210
0.0
220
0.0
230
1.0
 70
     8
 71
     3
 72
     9
 73
     5
 74
     0
 42
0.000000001
 43
0.00000001
 40
0.0
 40
0.0
 40
0.0
 40
0.0
 40
0.4954579634770029
 40
1.0
 40
1.0
 40
1.0
 40
1.0
 10
352.8369275513425
 20
226.3486858319048
 30
0.0
 10
352.6746631385756
 20
226.6534195530411
 30
0.0
 10
352.3471592437383
 20
227.2684741966231
 30
0.0
 10
352.2868164458685
 20
227.9042822943209
 30
0.0
 10
352.2563709677417
 20
228.2250742067711
 30
0.0
  0
SPLINE
  5
245
330
1F
100
AcDbEntity
  8
0
  6
Continuous
 62
     7
370
    25
100
AcDbSpline
210
0.0
220
0.0
230
1.0
 70
     8
 71
     3
 72
    10
 73
     6
 74
     0
 42
0.000000001
 43
0.00000001
 40
0.0
 40
0.0
 40
0.0
 40
0.0
 40
0.0700769119681892
 40
0.5307776640394126
 40
1.0
 40
1.0
 40
1.0
 40
1.0
 10
352.2563709677417
 20
228.2250742067711
 30
0.0
 10
352.2570639059701
 20
228.2695423347313
 30
0.0
 10
352.2623123697491
 20
228.6063535385935
 30
0.0
 10
352.3891035807661
 20
229.241402560649
 30
0.0
 10
352.6867437277243
 20
229.813029824617
 30
0.0
 10
352.8369275513425
 20
230.1014625816374
 30
0.0
  0
LINE
  5
246
330
1F
100
AcDbEntity
  8
0
  6
Continuous
 62
     7
370
    25
100
AcDbLine
 10
352.8369275513
 20
230.1014625816
 30
0.0
 11
359.5758143841
 21
230.1014625816
 31
0.0
  0
SPLINE
  5
247
330
1F
100
AcDbEntity
  8
0
  6
Continuous
 62
     7
370
    25
100
AcDbSpline
210
0.0
220
0.0
230
1.0
 70
     8
 71
     3
 72
    10
 73
     6
 74
     0
 42
0.000000001
 43
0.00000001
 40
0.0
 40
0.0
 40
0.0
 40
0.0
 40
0.0700769119681883
 40
0.5307776640394126
 40
1.0
 40
1.0
 40
1.0
 40
1.0
 10
360.1563709677417
 20
228.2250742067711
 30
0.0
 10
360.1556780295132
 20
228.2695423347313
 30
0.0
 10
360.1504295657346
 20
228.6063535385935
 30
0.0
 10
360.0236383547172
 20
229.241402560649
 30
0.0
 10
359.7259982077591
 20
229.8130298246171
 30
0.0
 10
359.5758143841409
 20
230.1014625816374
 30
0.0
  0
SPLINE
  5
248
330
1F
100
AcDbEntity
  8
0
  6
Continuous
 62
     7
370
    25
100
AcDbSpline
210
0.0
220
0.0
230
1.0
 70
     8
 71
     3
 72
     9
 73
     5
 74
     0
 42
0.000000001
 43
0.00000001
 40
0.0
 40
0.0
 40
0.0
 40
0.0
 40
0.4954579634770042
 40
0.9999999999999999
 40
0.9999999999999999
 40
0.9999999999999999
 40
0.9999999999999999
 10
359.575814384141
 20
226.3486858319048
 30
0.0
 10
359.7380787969076
 20
226.6534195530411
 30
0.0
 10
360.0655826917447
 20
227.2684741966231
 30
0.0
 10
360.1259254896149
 20
227.9042822943209
 30
0.0
 10
360.1563709677417
 20
228.2250742067711
 30
0.0
  0
LINE
  5
249
330
1F
100
AcDbEntity
  8
0
  6
Continuous
 62
     7
370
    25
100
AcDbLine
 10
352.8369275513
 20
226.3486858319
 30
0.0
 11
359.5758143841
 21
226.3486858319
 31
0.0
  0
SPLINE
  5
24A
330
1F
100
AcDbEntity
  8
0
  6
Continuous
 62
     7
370
    25
100
AcDbSpline
210
0.0
220
0.0
230
1.0
 70
     8
 71
     3
 72
    10
 73
     6
 74
     0
 42
0.000000001
 43
0.00000001
 40
0.0
 40
0.0
 40
0.0
 40
0.0
 40
0.2684065359321924
 40
0.6323728964502903
 40
1.0
 40
1.0
 40
1.0
 40
1.0
 10
352.2563709677417
 20
222.5959090821723
 30
0.0
 10
352.2658034482407
 20
222.9367163483798
 30
0.0
 10
352.28802662173
 20
223.7396672799377
 30
0.0
 10
352.4789056570611
 20
224.9993931103414
 30
0.0
 10
352.7171894788577
 20
225.8974237379429
 30
0.0
 10
352.8369275513425
 20
226.3486858319048
 30
0.0
  0
SPLINE
  5
24B
330
1F
100
AcDbEntity
  8
0
  6
Continuous
 62
     7
370
    25
100
AcDbSpline
210
0.0
220
0.0
230
1.0
 70
     8
 71
     3
 72
    10
 73
     6
 74
     0
 42
0.000000001
 43
0.00000001
 40
0.0
 40
0.0
 40
0.0
 40
0.0
 40
0.2572432618847689
 40
0.6263798857723069
 40
1.0
 40
1.0
 40
1.0
 40
1.0
 10
352.8369275513425
 20
218.8431323324397
 30
0.0
 10
352.7513745627987
 20
219.1582739083412
 30
0.0
 10
352.5430555156874
 20
219.9256345103993
 30
0.0
 10
352.3098750675746
 20
221.1780746403714
 30
0.0
 10
352.2742772937723
 20
222.1213995426831
 30
0.0
 10
352.2563709677417
 20
222.5959090821723
 30
0.0
  0
SPLINE
  5
24C
330
1F
100
AcDbEntity
  8
0
  6
Continuous
 62
     7
370
    25
100
AcDbSpline
210
0.0
220
0.0
230
1.0
 70
     8
 71
     3
 72
    10
 73
     6
 74
     0
 42
0.000000001
 43
0.00000001
 40
0.0
 40
0.0
 40
0.0
 40
0.0
 40
0.2684065359321932
 40
0.632372896450284
 40
0.9999999999999999
 40
0.9999999999999999
 40
0.9999999999999999
 40
0.9999999999999999
 10
360.1563709677417
 20
222.5959090821723
 30
0.0
 10
360.1469384872429
 20
222.9367163483798
 30
0.0
 10
360.1247153137535
 20
223.7396672799377
 30
0.0
 10
359.9338362784224
 20
224.9993931103413
 30
0.0
 10
359.6955524566257
 20
225.8974237379429
 30
0.0
 10
359.5758143841409
 20
226.3486858319048
 30
0.0
  0
SPLINE
  5
24D
330
1F
100
AcDbEntity
  8
0
  6
Continuous
 62
     7
370
    25
100
AcDbSpline
210
0.0
220
0.0
230
1.0
 70
     8
 71
     3
 72
    10
 73
     6
 74
     0
 42
0.000000001
 43
0.00000001
 40
0.0
 40
0.0
 40
0.0
 40
0.0
 40
0.2572432618847689
 40
0.6263798857723069
 40
1.0
 40
1.0
 40
1.0
 40
1.0
 10
359.5758143841409
 20
218.8431323324397
 30
0.0
 10
359.6613673726848
 20
219.1582739083412
 30
0.0
 10
359.8696864197956
 20
219.9256345103993
 30
0.0
 10
360.1028668679094
 20
221.1780746403714
 30
0.0
 10
360.1384646417111
 20
222.1213995426831
 30
0.0
 10
360.1563709677417
 20
222.5959090821723
 30
0.0
  0
LINE
  5
24E
330
1F
100
AcDbEntity
  8
0
  6
Continuous
 62
     7
370
    25
100
AcDbLine
 10
352.8369275513
 20
218.8431323324
 30
0.0
 11
359.5758143841
 21
218.8431323324
 31
0.0
  0
SPLINE
  5
24F
330
1F
100
AcDbEntity
  8
0
  6
Continuous
 62
     7
370
    25
100
AcDbSpline
210
0.0
220
0.0
230
1.0
 70
     8
 71
     3
 72
    10
 73
     6
 74
     0
 42
0.000000001
 43
0.00000001
 40
0.0
 40
0.0
 40
0.0
 40
0.0
 40
0.0700769119681875
 40
0.5307776640394114
 40
1.0
 40
1.0
 40
1.0
 40
1.0
 10
352.2563709677418
 20
216.9667439575734
 30
0.0
 10
352.2570639059701
 20
217.0112120855337
 30
0.0
 10
352.2623123697492
 20
217.3480232893958
 30
0.0
 10
352.3891035807663
 20
217.9830723114513
 30
0.0
 10
352.6867437277244
 20
218.5546995754193
 30
0.0
 10
352.8369275513426
 20
218.8431323324397
 30
0.0
  0
SPLINE
  5
250
330
1F
100
AcDbEntity
  8
0
  6
Continuous
 62
     7
370
    25
100
AcDbSpline
210
0.0
220
0.0
230
1.0
 70
     8
 71
     3
 72
     9
 73
     5
 74
     0
 42
0.000000001
 43
0.00000001
 40
0.0
 40
0.0
 40
0.0
 40
0.0
 40
0.4954579634770073
 40
1.0
 40
1.0
 40
1.0
 40
1.0
 10
352.8369275513425
 20
215.0903555827071
 30
0.0
 10
352.6746631385757
 20
215.3950893038433
 30
0.0
 10
352.3471592437385
 20
216.0101439474254
 30
0.0
 10
352.2868164458689
 20
216.6459520451232
 30
0.0
 10
352.2563709677418
 20
216.9667439575734
 30
0.0
  0
SPLINE
  5
251
330
1F
100
AcDbEntity
  8
0
  6
Continuous
 62
     7
370
    25
100
AcDbSpline
210
0.0
220
0.0
230
1.0
 70
     8
 71
     3
 72
    10
 73
     6
 74
     0
 42
0.000000001
 43
0.00000001
 40
0.0
 40
0.0
 40
0.0
 40
0.0
 40
0.0700769119681875
 40
0.5307776640394114
 40
1.0
 40
1.0
 40
1.0
 40
1.0
 10
360.1563709677419
 20
216.9667439575734
 30
0.0
 10
360.1556780295135
 20
217.0112120855337
 30
0.0
 10
360.1504295657348
 20
217.3480232893958
 30
0.0
 10
360.0236383547171
 20
217.9830723114513
 30
0.0
 10
359.7259982077591
 20
218.5546995754193
 30
0.0
 10
359.575814384141
 20
218.8431323324397
 30
0.0
  0
SPLINE
  5
252
330
1F
100
AcDbEntity
  8
0
  6
Continuous
 62
     7
370
    25
100
AcDbSpline
210
0.0
220
0.0
230
1.0
 70
     8
 71
     3
 72
     9
 73
     5
 74
     0
 42
0.000000001
 43
0.00000001
 40
0.0
 40
0.0
 40
0.0
 40
0.0
 40
0.4954579634770073
 40
1.0
 40
1.0
 40
1.0
 40
1.0
 10
359.5758143841409
 20
215.0903555827071
 30
0.0
 10
359.7380787969078
 20
215.3950893038433
 30
0.0
 10
360.0655826917449
 20
216.0101439474254
 30
0.0
 10
360.1259254896154
 20
216.6459520451232
 30
0.0
 10
360.1563709677419
 20
216.9667439575734
 30
0.0
  0
LINE
  5
253
330
1F
100
AcDbEntity
  8
0
  6
Continuous
 62
     7
370
    25
100
AcDbLine
 10
352.8369275513
 20
215.0903555827
 30
0.0
 11
359.5758143841
 21
215.0903555827
 31
0.0
  0
LINE
  5
254
330
1F
100
AcDbEntity
  8
0
  6
Continuous
 62
     7
370
    25
100
AcDbLine
 10
360.1563709677
 20
222.5959090822
 30
0.0
 11
360.1563709677
 21
228.2250742068
 31
0.0
  0
LINE
  5
255
330
1F
100
AcDbEntity
  8
0
  6
Continuous
 62
     7
370
    25
100
AcDbLine
 10
360.1563709677
 20
216.9667439576
 30
0.0
 11
360.1563709677
 21
222.5959090822
 31
0.0
  0
LINE
  5
256
330
1F
100
AcDbEntity
  8
0
  6
Continuous
 62
     7
370
    25
100
AcDbLine
 10
360.1563709677
 20
216.0959090822
 30
0.0
 11
360.1563709677
 21
216.9667439576
 31
0.0
  0
LINE
  5
257
330
1F
100
AcDbEntity
  8
0
  6
Continuous
 62
     7
370
    25
100
AcDbLine
 10
360.1563709677
 20
228.2250742068
 30
0.0
 11
360.1563709677
 21
229.0959090822
 31
0.0
  0
LINE
  5
258
330
1F
100
AcDbEntity
  8
0
  6
Continuous
 62
     7
370
    25
100
AcDbLine
 10
347.2563709677
 20
194.5959090822
 30
0.0
 11
345.2563709677
 21
194.5959090822
 31
0.0
  0
LINE
  5
259
330
1F
100
AcDbEntity
  8
0
  6
Continuous
 62
     7
370
    25
100
AcDbLine
 10
345.2563709677
 20
246.5959090822
 30
0.0
 11
347.2563709677
 21
246.5959090822
 31
0.0
  0
LINE
  5
25A
330
1F
100
AcDbEntity
  8
0
  6
Continuous
 62
     7
370
    25
100
AcDbLine
 10
347.2563709677
 20
227.5959090822
 30
0.0
 11
345.2563709677
 21
227.5959090822
 31
0.0
  0
LINE
  5
25B
330
1F
100
AcDbEntity
  8
0
  6
Continuous
 62
     7
370
    25
100
AcDbLine
 10
347.2563709677
 20
217.5959090822
 30
0.0
 11
345.2563709677
 21
217.5959090822
 31
0.0
  0
LINE
  5
25C
330
1F
100
AcDbEntity
  8
0
  6
Continuous
 62
     7
370
    25
100
AcDbLine
 10
350.2563709677
 20
244.0959090822
 30
0.0
 11
347.2563709677
 21
244.0959090822
 31
0.0
  0
LINE
  5
25D
330
1F
100
AcDbEntity
  8
0
  6
Continuous
 62
     7
370
    25
100
AcDbLine
 10
347.2563709677
 20
244.0959090822
 30
0.0
 11
347.2563709677
 21
194.5959090822
 31
0.0
  0
LINE
  5
25E
330
1F
100
AcDbEntity
  8
0
  6
Continuous
 62
     7
370
    25
100
AcDbLine
 10
350.2563709677
 20
194.5959090822
 30
0.0
 11
347.2563709677
 21
194.5959090822
 31
0.0
  0
LINE
  5
25F
330
1F
100
AcDbEntity
  8
0
  6
Continuous
 62
     7
370
    25
100
AcDbLine
 10
350.2563709677
 20
244.0959090822
 30
0.0
 11
350.2563709677
 21
194.5959090822
 31
0.0
  0
LINE
  5
260
330
1F
100
AcDbEntity
  8
0
  6
Continuous
 62
     7
370
    25
100
AcDbLine
 10
350.2563709677
 20
259.0959090822
 30
0.0
 11
347.2563709677
 21
259.0959090822
 31
0.0
  0
LINE
  5
261
330
1F
100
AcDbEntity
  8
0
  6
Continuous
 62
     7
370
    25
100
AcDbLine
 10
347.2563709677
 20
259.0959090822
 30
0.0
 11
347.2563709677
 21
244.0959090822
 31
0.0
  0
LINE
  5
262
330
1F
100
AcDbEntity
  8
0
  6
Continuous
 62
     7
370
    25
100
AcDbLine
 10
350.2563709677
 20
259.0959090822
 30
0.0
 11
350.2563709677
 21
246.5959090822
 31
0.0
  0
LINE
  5
263
330
1F
100
AcDbEntity
  8
0
  6
Continuous
 62
     7
370
    25
100
AcDbLine
 10
350.2563709677
 20
244.2591068116
 30
0.0
 11
350.2563709677
 21
244.0959090822
 31
0.0
  0
LINE
  5
264
330
1F
100
AcDbEntity
  8
0
  6
Continuous
 62
     7
370
    25
100
AcDbLine
 10
345.2563709677
 20
244.0959090822
 30
0.0
 11
342.2563709677
 21
244.0959090822
 31
0.0
  0
LINE
  5
265
330
1F
100
AcDbEntity
  8
0
  6
Continuous
 62
     7
370
    25
100
AcDbLine
 10
345.2563709677
 20
244.0959090822
 30
0.0
 11
345.2563709677
 21
194.5959090822
 31
0.0
  0
LINE
  5
266
330
1F
100
AcDbEntity
  8
0
  6
Continuous
 62
     7
370
    25
100
AcDbLine
 10
345.2563709677
 20
194.5959090822
 30
0.0
 11
342.2563709677
 21
194.5959090822
 31
0.0
  0
LINE
  5
267
330
1F
100
AcDbEntity
  8
0
  6
Continuous
 62
     7
370
    25
100
AcDbLine
 10
342.2563709677
 20
244.0959090822
 30
0.0
 11
342.2563709677
 21
194.5959090822
 31
0.0
  0
LINE
  5
268
330
1F
100
AcDbEntity
  8
0
  6
Continuous
 62
     7
370
    25
100
AcDbLine
 10
345.2563709677
 20
259.0959090822
 30
0.0
 11
342.2563709677
 21
259.0959090822
 31
0.0
  0
LINE
  5
269
330
1F
100
AcDbEntity
  8
0
  6
Continuous
 62
     7
370
    25
100
AcDbLine
 10
345.2563709677
 20
259.0959090822
 30
0.0
 11
345.2563709677
 21
244.0959090822
 31
0.0
  0
LINE
  5
26A
330
1F
100
AcDbEntity
  8
0
  6
Continuous
 62
     7
370
    25
100
AcDbLine
 10
342.2563709677
 20
259.0959090822
 30
0.0
 11
342.2563709677
 21
246.5959090822
 31
0.0
  0
LINE
  5
26B
330
1F
100
AcDbEntity
  8
0
  6
Continuous
 62
     7
370
    25
100
AcDbLine
 10
342.2563709677
 20
244.2591068116
 30
0.0
 11
342.2563709677
 21
244.0959090822
 31
0.0
  0
LINE
  5
26C
330
1F
100
AcDbEntity
  8
0
  6
Continuous
 62
     7
370
    25
100
AcDbLine
 10
340.2563709677
 20
197.3325090822
 30
0.0
 11
342.2563709677
 21
197.3325090822
 31
0.0
  0
LINE
  5
26D
330
1F
100
AcDbEntity
  8
0
  6
Continuous
 62
     7
370
    25
100
AcDbLine
 10
339.5197709677
 20
196.5959090822
 30
0.0
 11
339.5197709677
 21
194.5959090822
 31
0.0
  0
SPLINE
  5
26E
330
1F
100
AcDbEntity
  8
0
  6
Continuous
 62
     7
370
    25
100
AcDbSpline
210
0.0
220
0.0
230
1.0
 70
     8
 71
     3
 72
    11
 73
     7
 74
     0
 42
0.000000001
 43
0.00000001
 40
0.0
 40
0.0
 40
0.0
 40
0.0
 40
0.2472454926704253
 40
0.5282132489579143
 40
0.809331241898613
 40
0.9999999999999999
 40
0.9999999999999999
 40
0.9999999999999999
 40
0.9999999999999999
 10
339.5197709677415
 20
196.5959090821722
 30
0.0
 10
339.6151667950144
 20
196.6068061714049
 30
0.0
 10
339.8189696604041
 20
196.6300866237426
 30
0.0
 10
340.0799381315035
 20
196.8205231036708
 30
0.0
 10
340.2337087379212
 20
197.0773240712703
 30
0.0
 10
340.2498482969266
 20
197.259061418981
 30
0.0
 10
340.2563709677417
 20
197.3325090821722
 30
0.0
  0
SPLINE
  5
26F
330
1F
100
AcDbEntity
  8
0
  6
Continuous
 62
     7
370
    25
100
AcDbSpline
210
0.0
220
0.0
230
1.0
 70
     8
 71
     3
 72
    12
 73
     8
 74
     0
 42
0.000000001
 43
0.00000001
 40
0.0
 40
0.0
 40
0.0
 40
0.0
 40
0.2335879420900659
 40
0.4537901450808092
 40
0.6739877272614917
 40
0.894185218480851
 40
1.0
 40
1.0
 40
1.0
 40
1.0
 10
339.5197709677417
 20
194.5959090821722
 30
0.0
 10
339.8547033572494
 20
194.6317019262259
 30
0.0
 10
340.5053748613814
 20
194.701236508151
 30
0.0
 10
341.3469424643026
 20
195.2253840644719
 30
0.0
 10
341.9514770448262
 20
195.964244972598
 30
0.0
 10
342.2255164119749
 20
196.7163448902555
 30
0.0
 10
342.2488103759606
 20
197.181524379605
 30
0.0
 10
342.2563709677417
 20
197.3325090821723
 30
0.0
  0
LINE
  5
270
330
1F
100
AcDbEntity
  8
0
  6
Continuous
 62
     7
370
    25
100
AcDbLine
 10
339.5197709677
 20
194.5959090822
 30
0.0
 11
317.2563709677
 21
194.5959090822
 31
0.0
  0
LINE
  5
271
330
1F
100
AcDbEntity
  8
0
  6
Continuous
 62
     7
370
    25
100
AcDbLine
 10
339.5197709677
 20
196.5959090822
 30
0.0
 11
317.2563709677
 21
196.5959090822
 31
0.0
  0
LINE
  5
272
330
1F
100
AcDbEntity
  8
0
  6
Continuous
 62
     7
370
    25
100
AcDbLine
 10
315.2563709677
 20
194.5959090822
 30
0.0
 11
315.2563709677
 21
196.5959090822
 31
0.0
  0
LINE
  5
273
330
1F
100
AcDbEntity
  8
0
  6
Continuous
 62
     7
370
    25
100
AcDbLine
 10
315.2563709677
 20
196.5959090822
 30
0.0
 11
317.2563709677
 21
196.5959090822
 31
0.0
  0
LINE
  5
274
330
1F
100
AcDbEntity
  8
0
  6
Continuous
 62
     7
370
    25
100
AcDbLine
 10
317.2563709677
 20
194.5959090822
 30
0.0
 11
315.2563709677
 21
194.5959090822
 31
0.0
  0
LINE
  5
275
330
1F
100
AcDbEntity
  8
0
  6
Continuous
 62
     7
370
    25
100
AcDbLine
 10
342.2563709677
 20
246.5959090822
 30
0.0
 11
340.2563709677
 21
246.5959090822
 31
0.0
  0
LINE
  5
276
330
1F
100
AcDbEntity
  8
0
  6
Continuous
 62
     7
370
    25
100
AcDbLine
 10
342.2563709677
 20
244.2591068116
 30
0.0
 11
342.2563709677
 21
246.5959090822
 31
0.0
  0
LINE
  5
277
330
1F
100
AcDbEntity
  8
0
  6
Continuous
 62
     7
370
    25
100
AcDbLine
 10
340.2563709677
 20
197.3325090822
 30
0.0
 11
340.2563709677
 21
246.5959090822
 31
0.0
  0
SPLINE
  5
278
330
1F
100
AcDbEntity
  8
0
  6
Continuous
 62
     7
370
    25
100
AcDbSpline
210
0.0
220
0.0
230
1.0
 70
     8
 71
     3
 72
    12
 73
     8
 74
     0
 42
0.000000001
 43
0.00000001
 40
0.0
 40
0.0
 40
0.0
 40
0.0
 40
0.2335879420900815
 40
0.4537901450808389
 40
0.6739877272615066
 40
0.894185218480903
 40
1.0
 40
1.0
 40
1.0
 40
1.0
 10
350.2563709677417
 20
197.3325090821722
 30
0.0
 10
350.2921638117954
 20
196.9975766926647
 30
0.0
 10
350.3616983937207
 20
196.3469051885326
 30
0.0
 10
350.885845950041
 20
195.505337585611
 30
0.0
 10
351.624706858168
 20
194.9008030050881
 30
0.0
 10
352.3768067758247
 20
194.6267636379382
 30
0.0
 10
352.8419862651746
 20
194.6034696739532
 30
0.0
 10
352.9929709677417
 20
194.5959090821722
 30
0.0
  0
LINE
  5
279
330
1F
100
AcDbEntity
  8
0
  6
Continuous
 62
     7
370
    25
100
AcDbLine
 10
352.2563709677
 20
197.3325090822
 30
0.0
 11
350.2563709677
 21
197.3325090822
 31
0.0
  0
SPLINE
  5
27A
330
1F
100
AcDbEntity
  8
0
  6
Continuous
 62
     7
370
    25
100
AcDbSpline
210
0.0
220
0.0
230
1.0
 70
     8
 71
     3
 72
    11
 73
     7
 74
     0
 42
0.000000001
 43
0.00000001
 40
0.0
 40
0.0
 40
0.0
 40
0.0
 40
0.2472454926703005
 40
0.5282132489579687
 40
0.8093312418985484
 40
1.0
 40
1.0
 40
1.0
 40
1.0
 10
352.2563709677418
 20
197.3325090821722
 30
0.0
 10
352.2672680569746
 20
197.2371132548993
 30
0.0
 10
352.2905485093123
 20
197.0333103895096
 30
0.0
 10
352.4809849892403
 20
196.7723419184102
 30
0.0
 10
352.7377859568397
 20
196.6185713119932
 30
0.0
 10
352.9195233045503
 20
196.6024317529873
 30
0.0
 10
352.9929709677417
 20
196.5959090821722
 30
0.0
  0
LINE
  5
27B
330
1F
100
AcDbEntity
  8
0
  6
Continuous
 62
     7
370
    25
100
AcDbLine
 10
352.9929709677
 20
196.5959090822
 30
0.0
 11
352.9929709677
 21
194.5959090822
 31
0.0
  0
LINE
  5
27C
330
1F
100
AcDbEntity
  8
0
  6
Continuous
 62
     7
370
    25
100
AcDbLine
 10
375.2563709677
 20
194.5959090822
 30
0.0
 11
352.9929709677
 21
194.5959090822
 31
0.0
  0
LINE
  5
27D
330
1F
100
AcDbEntity
  8
0
  6
Continuous
 62
     7
370
    25
100
AcDbLine
 10
375.2563709677
 20
196.5959090822
 30
0.0
 11
352.9929709677
 21
196.5959090822
 31
0.0
  0
LINE
  5
27E
330
1F
100
AcDbEntity
  8
0
  6
Continuous
 62
     7
370
    25
100
AcDbLine
 10
377.2563709677
 20
196.5959090822
 30
0.0
 11
377.2563709677
 21
194.5959090822
 31
0.0
  0
LINE
  5
27F
330
1F
100
AcDbEntity
  8
0
  6
Continuous
 62
     7
370
    25
100
AcDbLine
 10
377.2563709677
 20
194.5959090822
 30
0.0
 11
375.2563709677
 21
194.5959090822
 31
0.0
  0
LINE
  5
280
330
1F
100
AcDbEntity
  8
0
  6
Continuous
 62
     7
370
    25
100
AcDbLine
 10
375.2563709677
 20
196.5959090822
 30
0.0
 11
377.2563709677
 21
196.5959090822
 31
0.0
  0
LINE
  5
281
330
1F
100
AcDbEntity
  8
0
  6
Continuous
 62
     7
370
    25
100
AcDbLine
 10
350.2563709677
 20
246.5959090822
 30
0.0
 11
352.2563709677
 21
246.5959090822
 31
0.0
  0
LINE
  5
282
330
1F
100
AcDbEntity
  8
0
  6
Continuous
 62
     7
370
    25
100
AcDbLine
 10
350.2563709677
 20
246.5959090822
 30
0.0
 11
350.2563709677
 21
244.2591068116
 31
0.0
  0
LINE
  5
283
330
1F
100
AcDbEntity
  8
0
  6
Continuous
 62
     7
370
    25
100
AcDbLine
 10
352.2563709677
 20
246.5959090822
 30
0.0
 11
352.2563709677
 21
197.3325090822
 31
0.0
  0
LINE
  5
284
330
1F
100
AcDbEntity
  8
0
  6
Continuous
 62
     8
370
    18
100
AcDbLine
 10
345.2563709677
 20
198.5959090822
 30
0.0
 11
347.2563709677
 21
198.5959090822
 31
0.0
  0
LINE
  5
285
330
1F
100
AcDbEntity
  8
0
  6
Continuous
 62
     8
370
    18
100
AcDbLine
 10
347.2563709677
 20
242.5959090822
 30
0.0
 11
345.2563709677
 21
242.5959090822
 31
0.0
  0
LINE
  5
286
330
1F
100
AcDbEntity
  8
0
  6
Continuous
 62
     8
370
    18
100
AcDbLine
 10
317.2563709677
 20
196.5959090822
 30
0.0
 11
317.2563709677
 21
194.5959090822
 31
0.0
  0
LINE
  5
287
330
1F
100
AcDbEntity
  8
0
  6
Continuous
 62
     8
370
    18
100
AcDbLine
 10
375.2563709677
 20
194.5959090822
 30
0.0
 11
375.2563709677
 21
196.5959090822
 31
0.0
  0
DIMENSION
  5
288
330
1F
100
AcDbEntity
  8
0
  6
Continuous
 62
     7
370
    18
100
AcDbDimension
  2
_D_2
 10
397.2563709677
 20
259.0959090822
 30
0.0
 11
397.2563709677
 21
226.8459090822
 31
0.0
 70
   160
  1
<>
 71
     2
 42
-1.0
  3
SLDDIMSTYLE1
100
AcDbAlignedDimension
 13
377.2563709677
 23
194.5959090822
 33
0.0
 14
350.2563709677
 24
259.0959090822
 34
0.0
 50
90.0
100
AcDbRotatedDimension
  0
DIMENSION
  5
292
330
1F
100
AcDbEntity
  8
0
  6
Continuous
 62
     7
370
    18
100
AcDbDimension
  2
_D_3
 10
308.5550327626
 20
222.5959090822
 30
0.0
 11
308.5550327626
 21
208.5959090822
 31
0.0
 70
   160
  1
<>
 71
     2
 42
-1.0
  3
SLDDIMSTYLE1
100
AcDbAlignedDimension
 13
315.2563709677
 23
194.5959090822
 33
0.0
 14
338.6563709677
 24
222.5959090822
 34
0.0
 50
90.0
100
AcDbRotatedDimension
  0
LINE
  5
29C
330
1F
100
AcDbEntity
  8
0
  6
CENTERX2
 62
     7
370
    18
100
AcDbLine
 10
338.6563709677
 20
222.5959090822
 30
0.0
 11
367.2563709677
 21
222.5959090822
 31
0.0
  0
LINE
  5
29D
330
1F
100
AcDbEntity
  8
0
  6
Continuous
 62
     7
370
    25
100
AcDbLine
 10
205.8054324565
 20
123.6777483871
 30
0.0
 11
205.8054324565
 21
123.0777483871
 31
0.0
  0
LINE
  5
29E
330
1F
100
AcDbEntity
  8
0
  6
Continuous
 62
     7
370
    25
100
AcDbLine
 10
218.8054324565
 20
123.0777483871
 30
0.0
 11
218.8054324565
 21
123.6777483871
 31
0.0
  0
LINE
  5
29F
330
1F
100
AcDbEntity
  8
0
  6
Continuous
 62
     7
370
    25
100
AcDbLine
 10
208.3054324565
 20
103.1777483871
 30
0.0
 11
208.3054324565
 21
98.7682483871
 31
0.0
  0
LINE
  5
2A0
330
1F
100
AcDbEntity
  8
0
  6
Continuous
 62
     7
370
    25
100
AcDbLine
 10
216.3054324565
 20
98.7682483871
 30
0.0
 11
216.3054324565
 21
103.1777483871
 31
0.0
  0
LINE
  5
2A1
330
1F
100
AcDbEntity
  8
0
  6
Continuous
 62
     7
370
    25
100
AcDbLine
 10
208.3054324565
 20
98.7682483871
 30
0.0
 11
208.9959324565
 21
98.0777483871
 31
0.0
  0
LINE
  5
2A2
330
1F
100
AcDbEntity
  8
0
  6
Continuous
 62
     7
370
    25
100
AcDbLine
 10
215.6149324565
 20
98.0777483871
 30
0.0
 11
216.3054324565
 21
98.7682483871
 31
0.0
  0
LINE
  5
2A3
330
1F
100
AcDbEntity
  8
0
  6
Continuous
 62
     7
370
    25
100
AcDbLine
 10
59.8054324565
 20
123.6777483871
 30
0.0
 11
59.8054324565
 21
123.0777483871
 31
0.0
  0
LINE
  5
2A4
330
1F
100
AcDbEntity
  8
0
  6
Continuous
 62
     7
370
    25
100
AcDbLine
 10
72.8054324565
 20
123.0777483871
 30
0.0
 11
72.8054324565
 21
123.6777483871
 31
0.0
  0
LINE
  5
2A5
330
1F
100
AcDbEntity
  8
0
  6
Continuous
 62
     7
370
    25
100
AcDbLine
 10
62.3054324565
 20
103.1777483871
 30
0.0
 11
62.3054324565
 21
98.7682483871
 31
0.0
  0
LINE
  5
2A6
330
1F
100
AcDbEntity
  8
0
  6
Continuous
 62
     7
370
    25
100
AcDbLine
 10
70.3054324565
 20
98.7682483871
 30
0.0
 11
70.3054324565
 21
103.1777483871
 31
0.0
  0
LINE
  5
2A7
330
1F
100
AcDbEntity
  8
0
  6
Continuous
 62
     7
370
    25
100
AcDbLine
 10
62.3054324565
 20
98.7682483871
 30
0.0
 11
62.9959324565
 21
98.0777483871
 31
0.0
  0
LINE
  5
2A8
330
1F
100
AcDbEntity
  8
0
  6
Continuous
 62
     7
370
    25
100
AcDbLine
 10
69.6149324565
 20
98.0777483871
 30
0.0
 11
70.3054324565
 21
98.7682483871
 31
0.0
  0
LINE
  5
2A9
330
1F
100
AcDbEntity
  8
0
  6
Continuous
 62
     7
370
    25
100
AcDbLine
 10
87.8327133875
 20
113.0777483871
 30
0.0
 11
87.8327133875
 21
116.0777483871
 31
0.0
  0
LINE
  5
2AA
330
1F
100
AcDbEntity
  8
0
  6
Continuous
 62
     7
370
    25
100
AcDbLine
 10
190.7781515255
 20
116.0777483871
 30
0.0
 11
190.7781515255
 21
113.0777483871
 31
0.0
  0
LINE
  5
2AB
330
1F
100
AcDbEntity
  8
0
  6
Continuous
 62
     7
370
    25
100
AcDbLine
 10
87.8327133875
 20
118.0777483871
 30
0.0
 11
87.8327133875
 21
121.0777483871
 31
0.0
  0
LINE
  5
2AC
330
1F
100
AcDbEntity
  8
0
  6
Continuous
 62
     7
370
    25
100
AcDbLine
 10
190.7781515255
 20
121.0777483871
 30
0.0
 11
190.7781515255
 21
118.0777483871
 31
0.0
  0
LINE
  5
2AD
330
1F
100
AcDbEntity
  8
0
  6
Continuous
 62
     7
370
    25
100
AcDbLine
 10
87.1883814263
 20
121.0777483871
 30
0.0
 11
87.1883814263
 21
123.0777483871
 31
0.0
  0
LINE
  5
2AE
330
1F
100
AcDbEntity
  8
0
  6
Continuous
 62
     7
370
    25
100
AcDbLine
 10
191.4224834866
 20
123.0777483871
 30
0.0
 11
191.4224834866
 21
121.0777483871
 31
0.0
  0
LINE
  5
2AF
330
1F
100
AcDbEntity
  8
0
  6
Continuous
 62
     7
370
    25
100
AcDbLine
 10
191.4224834866
 20
113.0777483871
 30
0.0
 11
191.4224834866
 21
111.0777483871
 31
0.0
  0
LINE
  5
2B0
330
1F
100
AcDbEntity
  8
0
  6
Continuous
 62
     7
370
    25
100
AcDbLine
 10
87.1883814263
 20
111.0777483871
 30
0.0
 11
87.1883814263
 21
113.0777483871
 31
0.0
  0
LINE
  5
2B1
330
1F
100
AcDbEntity
  8
0
  6
Continuous
 62
     7
370
    25
100
AcDbLine
 10
209.0554324565
 20
123.6777483871
 30
0.0
 11
205.8054324565
 21
123.6777483871
 31
0.0
  0
LINE
  5
2B2
330
1F
100
AcDbEntity
  8
0
  6
Continuous
 62
     7
370
    25
100
AcDbLine
 10
205.8054324565
 20
123.6777483871
 30
0.0
 11
205.8054324565
 21
127.7971918035
 31
0.0
  0
SPLINE
  5
2B3
330
1F
100
AcDbEntity
  8
0
  6
Continuous
 62
     7
370
    25
100
AcDbSpline
210
0.0
220
0.0
230
1.0
 70
     8
 71
     3
 72
     9
 73
     5
 74
     0
 42
0.000000001
 43
0.00000001
 40
0.0
 40
0.0
 40
0.0
 40
0.0
 40
0.4954579634770047
 40
1.0
 40
1.0
 40
1.0
 40
1.0
 10
205.8054324564804
 20
127.7971918034961
 30
0.0
 10
206.3332467442679
 20
127.9594562162628
 30
0.0
 10
207.3985526363832
 20
128.2869601111
 30
0.0
 10
208.4998045654594
 20
128.3473029089701
 30
0.0
 10
209.0554324564804
 20
128.3777483870969
 30
0.0
  0
SPLINE
  5
2B4
330
1F
100
AcDbEntity
  8
0
  6
Continuous
 62
     7
370
    25
100
AcDbSpline
210
0.0
220
0.0
230
1.0
 70
     8
 71
     3
 72
    10
 73
     6
 74
     0
 42
0.000000001
 43
0.00000001
 40
0.0
 40
0.0
 40
0.0
 40
0.0
 40
0.0700769119681883
 40
0.5307776640394055
 40
1.0
 40
1.0
 40
1.0
 40
1.0
 10
209.0554324564804
 20
128.3777483870969
 30
0.0
 10
209.132453513425
 20
128.3770554488684
 30
0.0
 10
209.7158276310727
 20
128.3718069850891
 30
0.0
 10
210.8157648025698
 20
128.2450157740728
 30
0.0
 10
211.805852266754
 20
127.9473756271142
 30
0.0
 10
212.3054324564804
 20
127.7971918034961
 30
0.0
  0
LINE
  5
2B5
330
1F
100
AcDbEntity
  8
0
  6
Continuous
 62
     7
370
    25
100
AcDbLine
 10
212.3054324565
 20
123.6777483871
 30
0.0
 11
212.3054324565
 21
127.7971918035
 31
0.0
  0
LINE
  5
2B6
330
1F
100
AcDbEntity
  8
0
  6
Continuous
 62
     7
370
    25
100
AcDbLine
 10
212.3054324565
 20
123.6777483871
 30
0.0
 11
209.0554324565
 21
123.6777483871
 31
0.0
  0
LINE
  5
2B7
330
1F
100
AcDbEntity
  8
0
  6
Continuous
 62
     7
370
    25
100
AcDbLine
 10
215.5554324565
 20
128.3777483871
 30
0.0
 11
209.0554324565
 21
128.3777483871
 31
0.0
  0
SPLINE
  5
2B8
330
1F
100
AcDbEntity
  8
0
  6
Continuous
 62
     7
370
    25
100
AcDbSpline
210
0.0
220
0.0
230
1.0
 70
     8
 71
     3
 72
     9
 73
     5
 74
     0
 42
0.000000001
 43
0.00000001
 40
0.0
 40
0.0
 40
0.0
 40
0.0
 40
0.4954579634770046
 40
1.0
 40
1.0
 40
1.0
 40
1.0
 10
212.3054324564804
 20
127.797191803496
 30
0.0
 10
212.8332467442679
 20
127.9594562162626
 30
0.0
 10
213.8985526363832
 20
128.2869601110996
 30
0.0
 10
214.9998045654594
 20
128.3473029089701
 30
0.0
 10
215.5554324564804
 20
128.3777483870969
 30
0.0
  0
LINE
  5
2B9
330
1F
100
AcDbEntity
  8
0
  6
Continuous
 62
     7
370
    25
100
AcDbLine
 10
215.5554324565
 20
123.6777483871
 30
0.0
 11
212.3054324565
 21
123.6777483871
 31
0.0
  0
SPLINE
  5
2BA
330
1F
100
AcDbEntity
  8
0
  6
Continuous
 62
     7
370
    25
100
AcDbSpline
210
0.0
220
0.0
230
1.0
 70
     8
 71
     3
 72
    10
 73
     6
 74
     0
 42
0.000000001
 43
0.00000001
 40
0.0
 40
0.0
 40
0.0
 40
0.0
 40
0.0700769119681874
 40
0.5307776640394051
 40
1.0
 40
1.0
 40
1.0
 40
1.0
 10
215.5554324564804
 20
128.3777483870969
 30
0.0
 10
215.632453513425
 20
128.3770554488686
 30
0.0
 10
216.2158276310727
 20
128.3718069850894
 30
0.0
 10
217.3157648025698
 20
128.2450157740722
 30
0.0
 10
218.305852266754
 20
127.9473756271144
 30
0.0
 10
218.8054324564804
 20
127.7971918034961
 30
0.0
  0
LINE
  5
2BB
330
1F
100
AcDbEntity
  8
0
  6
Continuous
 62
     7
370
    25
100
AcDbLine
 10
218.8054324565
 20
123.6777483871
 30
0.0
 11
218.8054324565
 21
127.7971918035
 31
0.0
  0
LINE
  5
2BC
330
1F
100
AcDbEntity
  8
0
  6
Continuous
 62
     7
370
    25
100
AcDbLine
 10
218.8054324565
 20
123.6777483871
 30
0.0
 11
215.5554324565
 21
123.6777483871
 31
0.0
  0
SPLINE
  5
2BD
330
1F
100
AcDbEntity
  8
0
  6
Continuous
 62
     7
370
    25
100
AcDbSpline
210
0.0
220
0.0
230
1.0
 70
    24
 71
     3
 72
    10
 73
     6
 74
     0
 42
0.000000001
 43
0.00000001
 40
0.0
 40
0.0
 40
0.0
 40
0.0
 40
0.2416195575674898
 40
0.6187318536088843
 40
1.0
 40
1.0
 40
1.0
 40
1.0
 10
205.8054324564804
 20
128.3777483870968
 30
0.0
 10
205.8054324564804
 20
128.3700412744341
 30
0.0
 10
205.8054324564804
 20
128.3503051398604
 30
0.0
 10
205.8054324564804
 20
128.1674521878112
 30
0.0
 10
205.8054324564804
 20
127.9210619962856
 30
0.0
 10
205.8054324564804
 20
127.7971918034961
 30
0.0
  0
LINE
  5
2BE
330
1F
100
AcDbEntity
  8
0
  6
Continuous
 62
     7
370
    25
100
AcDbLine
 10
205.8054324565
 20
128.3777483871
 30
0.0
 11
209.0554324565
 21
128.3777483871
 31
0.0
  0
SPLINE
  5
2BF
330
1F
100
AcDbEntity
  8
0
  6
Continuous
 62
     7
370
    25
100
AcDbSpline
210
0.0
220
0.0
230
1.0
 70
    24
 71
     3
 72
    10
 73
     6
 74
     0
 42
0.000000001
 43
0.00000001
 40
0.0
 40
0.0
 40
0.0
 40
0.0
 40
0.377442699327782
 40
0.7583800352693492
 40
1.0
 40
1.0
 40
1.0
 40
1.0
 10
218.8054324564804
 20
127.797191803496
 30
0.0
 10
218.8054324564804
 20
127.919905461456
 30
0.0
 10
218.8054324564804
 20
128.1664689488877
 30
0.0
 10
218.8054324564804
 20
128.3501726163101
 30
0.0
 10
218.8054324564804
 20
128.370038329182
 30
0.0
 10
218.8054324564804
 20
128.3777483870968
 30
0.0
  0
LINE
  5
2C0
330
1F
100
AcDbEntity
  8
0
  6
Continuous
 62
     7
370
    25
100
AcDbLine
 10
218.8054324565
 20
128.3777483871
 30
0.0
 11
215.5554324565
 21
128.3777483871
 31
0.0
  0
LINE
  5
2C1
330
1F
100
AcDbEntity
  8
0
  6
Continuous
 62
     7
370
    25
100
AcDbLine
 10
208.3054324565
 20
98.7682483871
 30
0.0
 11
216.3054324565
 21
98.7682483871
 31
0.0
  0
LINE
  5
2C2
330
1F
100
AcDbEntity
  8
0
  6
Continuous
 62
     7
370
    25
100
AcDbLine
 10
208.9959324565
 20
98.0777483871
 30
0.0
 11
215.6149324565
 21
98.0777483871
 31
0.0
  0
LINE
  5
2C3
330
1F
100
AcDbEntity
  8
0
  6
Continuous
 62
     7
370
    25
100
AcDbLine
 10
69.5554324565
 20
128.3777483871
 30
0.0
 11
63.0554324565
 21
128.3777483871
 31
0.0
  0
SPLINE
  5
2C4
330
1F
100
AcDbEntity
  8
0
  6
Continuous
 62
     7
370
    25
100
AcDbSpline
210
0.0
220
0.0
230
1.0
 70
     8
 71
     3
 72
     9
 73
     5
 74
     0
 42
0.000000001
 43
0.00000001
 40
0.0
 40
0.0
 40
0.0
 40
0.0
 40
0.4954579634770046
 40
1.0
 40
1.0
 40
1.0
 40
1.0
 10
66.30543245648036
 20
127.797191803496
 30
0.0
 10
66.83324674426787
 20
127.9594562162626
 30
0.0
 10
67.89855263638319
 20
128.2869601110996
 30
0.0
 10
68.99980456545939
 20
128.3473029089701
 30
0.0
 10
69.55543245648039
 20
128.3777483870969
 30
0.0
  0
SPLINE
  5
2C5
330
1F
100
AcDbEntity
  8
0
  6
Continuous
 62
     7
370
    25
100
AcDbSpline
210
0.0
220
0.0
230
1.0
 70
     8
 71
     3
 72
    10
 73
     6
 74
     0
 42
0.000000001
 43
0.00000001
 40
0.0
 40
0.0
 40
0.0
 40
0.0
 40
0.0700769119681883
 40
0.5307776640394055
 40
1.0
 40
1.0
 40
1.0
 40
1.0
 10
63.05543245648039
 20
128.3777483870969
 30
0.0
 10
63.13245351342499
 20
128.3770554488684
 30
0.0
 10
63.71582763107263
 20
128.3718069850891
 30
0.0
 10
64.81576480256989
 20
128.2450157740728
 30
0.0
 10
65.80585226675404
 20
127.9473756271142
 30
0.0
 10
66.30543245648039
 20
127.7971918034961
 30
0.0
  0
LINE
  5
2C6
330
1F
100
AcDbEntity
  8
0
  6
Continuous
 62
     7
370
    25
100
AcDbLine
 10
69.5554324565
 20
123.6777483871
 30
0.0
 11
66.3054324565
 21
123.6777483871
 31
0.0
  0
LINE
  5
2C7
330
1F
100
AcDbEntity
  8
0
  6
Continuous
 62
     7
370
    25
100
AcDbLine
 10
66.3054324565
 20
123.6777483871
 30
0.0
 11
66.3054324565
 21
127.7971918035
 31
0.0
  0
SPLINE
  5
2C8
330
1F
100
AcDbEntity
  8
0
  6
Continuous
 62
     7
370
    25
100
AcDbSpline
210
0.0
220
0.0
230
1.0
 70
     8
 71
     3
 72
    10
 73
     6
 74
     0
 42
0.000000001
 43
0.00000001
 40
0.0
 40
0.0
 40
0.0
 40
0.0
 40
0.0700769119681874
 40
0.5307776640394051
 40
1.0
 40
1.0
 40
1.0
 40
1.0
 10
69.55543245648039
 20
128.3777483870969
 30
0.0
 10
69.63245351342502
 20
128.3770554488686
 30
0.0
 10
70.21582763107266
 20
128.3718069850894
 30
0.0
 10
71.31576480256977
 20
128.2450157740722
 30
0.0
 10
72.30585226675409
 20
127.9473756271144
 30
0.0
 10
72.8054324564804
 20
127.7971918034961
 30
0.0
  0
LINE
  5
2C9
330
1F
100
AcDbEntity
  8
0
  6
Continuous
 62
     7
370
    25
100
AcDbLine
 10
72.8054324565
 20
123.6777483871
 30
0.0
 11
72.8054324565
 21
127.7971918035
 31
0.0
  0
LINE
  5
2CA
330
1F
100
AcDbEntity
  8
0
  6
Continuous
 62
     7
370
    25
100
AcDbLine
 10
72.8054324565
 20
123.6777483871
 30
0.0
 11
69.5554324565
 21
123.6777483871
 31
0.0
  0
LINE
  5
2CB
330
1F
100
AcDbEntity
  8
0
  6
Continuous
 62
     7
370
    25
100
AcDbLine
 10
63.0554324565
 20
123.6777483871
 30
0.0
 11
59.8054324565
 21
123.6777483871
 31
0.0
  0
LINE
  5
2CC
330
1F
100
AcDbEntity
  8
0
  6
Continuous
 62
     7
370
    25
100
AcDbLine
 10
59.8054324565
 20
123.6777483871
 30
0.0
 11
59.8054324565
 21
127.7971918035
 31
0.0
  0
SPLINE
  5
2CD
330
1F
100
AcDbEntity
  8
0
  6
Continuous
 62
     7
370
    25
100
AcDbSpline
210
0.0
220
0.0
230
1.0
 70
     8
 71
     3
 72
     9
 73
     5
 74
     0
 42
0.000000001
 43
0.00000001
 40
0.0
 40
0.0
 40
0.0
 40
0.0
 40
0.4954579634770047
 40
1.0
 40
1.0
 40
1.0
 40
1.0
 10
59.80543245648039
 20
127.7971918034961
 30
0.0
 10
60.33324674426789
 20
127.9594562162628
 30
0.0
 10
61.39855263638321
 20
128.2869601111
 30
0.0
 10
62.49980456545941
 20
128.3473029089701
 30
0.0
 10
63.05543245648039
 20
128.3777483870969
 30
0.0
  0
LINE
  5
2CE
330
1F
100
AcDbEntity
  8
0
  6
Continuous
 62
     7
370
    25
100
AcDbLine
 10
66.3054324565
 20
123.6777483871
 30
0.0
 11
63.0554324565
 21
123.6777483871
 31
0.0
  0
SPLINE
  5
2CF
330
1F
100
AcDbEntity
  8
0
  6
Continuous
 62
     7
370
    25
100
AcDbSpline
210
0.0
220
0.0
230
1.0
 70
    24
 71
     3
 72
    10
 73
     6
 74
     0
 42
0.000000001
 43
0.00000001
 40
0.0
 40
0.0
 40
0.0
 40
0.0
 40
0.2416195575674898
 40
0.6187318536088843
 40
1.0
 40
1.0
 40
1.0
 40
1.0
 10
59.80543245648036
 20
128.3777483870968
 30
0.0
 10
59.80543245648039
 20
128.3700412744341
 30
0.0
 10
59.80543245648036
 20
128.3503051398604
 30
0.0
 10
59.80543245648044
 20
128.1674521878112
 30
0.0
 10
59.80543245648039
 20
127.9210619962856
 30
0.0
 10
59.80543245648039
 20
127.7971918034961
 30
0.0
  0
LINE
  5
2D0
330
1F
100
AcDbEntity
  8
0
  6
Continuous
 62
     7
370
    25
100
AcDbLine
 10
59.8054324565
 20
128.3777483871
 30
0.0
 11
63.0554324565
 21
128.3777483871
 31
0.0
  0
SPLINE
  5
2D1
330
1F
100
AcDbEntity
  8
0
  6
Continuous
 62
     7
370
    25
100
AcDbSpline
210
0.0
220
0.0
230
1.0
 70
    24
 71
     3
 72
    10
 73
     6
 74
     0
 42
0.000000001
 43
0.00000001
 40
0.0
 40
0.0
 40
0.0
 40
0.0
 40
0.377442699327782
 40
0.7583800352693492
 40
1.0
 40
1.0
 40
1.0
 40
1.0
 10
72.80543245648037
 20
127.797191803496
 30
0.0
 10
72.8054324564804
 20
127.919905461456
 30
0.0
 10
72.8054324564804
 20
128.1664689488877
 30
0.0
 10
72.8054324564804
 20
128.3501726163101
 30
0.0
 10
72.80543245648037
 20
128.370038329182
 30
0.0
 10
72.80543245648037
 20
128.3777483870968
 30
0.0
  0
LINE
  5
2D2
330
1F
100
AcDbEntity
  8
0
  6
Continuous
 62
     7
370
    25
100
AcDbLine
 10
72.8054324565
 20
128.3777483871
 30
0.0
 11
69.5554324565
 21
128.3777483871
 31
0.0
  0
LINE
  5
2D3
330
1F
100
AcDbEntity
  8
0
  6
Continuous
 62
     7
370
    25
100
AcDbLine
 10
62.3054324565
 20
98.7682483871
 30
0.0
 11
70.3054324565
 21
98.7682483871
 31
0.0
  0
LINE
  5
2D4
330
1F
100
AcDbEntity
  8
0
  6
Continuous
 62
     7
370
    25
100
AcDbLine
 10
62.9959324565
 20
98.0777483871
 30
0.0
 11
69.6149324565
 21
98.0777483871
 31
0.0
  0
SPLINE
  5
2D5
330
1F
100
AcDbEntity
  8
0
  6
Continuous
 62
     7
370
    25
100
AcDbSpline
210
0.0
220
0.0
230
1.0
 70
     8
 71
     3
 72
     9
 73
     5
 74
     0
 42
0.000000001
 43
0.00000001
 40
0.0
 40
0.0
 40
0.0
 40
0.0
 40
0.4954579634770029
 40
1.0
 40
1.0
 40
1.0
 40
1.0
 10
205.8054324564801
 20
110.4971918034962
 30
0.0
 10
206.3332467442677
 20
110.6594562162631
 30
0.0
 10
207.398552636383
 20
110.9869601111003
 30
0.0
 10
208.4998045654592
 20
111.0473029089702
 30
0.0
 10
209.0554324564801
 20
111.077748387097
 30
0.0
  0
SPLINE
  5
2D6
330
1F
100
AcDbEntity
  8
0
  6
Continuous
 62
     7
370
    25
100
AcDbSpline
210
0.0
220
0.0
230
1.0
 70
     8
 71
     3
 72
    10
 73
     6
 74
     0
 42
0.000000001
 43
0.00000001
 40
0.0
 40
0.0
 40
0.0
 40
0.0
 40
0.0700769119681892
 40
0.5307776640394126
 40
1.0
 40
1.0
 40
1.0
 40
1.0
 10
209.0554324564801
 20
111.077748387097
 30
0.0
 10
209.1324535134248
 20
111.0770554488685
 30
0.0
 10
209.7158276310724
 20
111.0718069850896
 30
0.0
 10
210.8157648025696
 20
110.9450157740726
 30
0.0
 10
211.8058522667538
 20
110.6473756271144
 30
0.0
 10
212.3054324564802
 20
110.4971918034962
 30
0.0
  0
LINE
  5
2D7
330
1F
100
AcDbEntity
  8
0
  6
Continuous
 62
     7
370
    25
100
AcDbLine
 10
212.3054324565
 20
110.4971918035
 30
0.0
 11
212.3054324565
 21
103.7583049707
 31
0.0
  0
SPLINE
  5
2D8
330
1F
100
AcDbEntity
  8
0
  6
Continuous
 62
     7
370
    25
100
AcDbSpline
210
0.0
220
0.0
230
1.0
 70
     8
 71
     3
 72
    10
 73
     6
 74
     0
 42
0.000000001
 43
0.00000001
 40
0.0
 40
0.0
 40
0.0
 40
0.0
 40
0.0700769119681883
 40
0.5307776640394126
 40
1.0
 40
1.0
 40
1.0
 40
1.0
 10
209.0554324564801
 20
103.1777483870969
 30
0.0
 10
209.1324535134248
 20
103.1784413253254
 30
0.0
 10
209.7158276310724
 20
103.1836897891041
 30
0.0
 10
210.8157648025696
 20
103.3104810001214
 30
0.0
 10
211.8058522667538
 20
103.6081211470795
 30
0.0
 10
212.3054324564802
 20
103.7583049706977
 30
0.0
  0
SPLINE
  5
2D9
330
1F
100
AcDbEntity
  8
0
  6
Continuous
 62
     7
370
    25
100
AcDbSpline
210
0.0
220
0.0
230
1.0
 70
     8
 71
     3
 72
     9
 73
     5
 74
     0
 42
0.000000001
 43
0.00000001
 40
0.0
 40
0.0
 40
0.0
 40
0.0
 40
0.4954579634770042
 40
0.9999999999999999
 40
0.9999999999999999
 40
0.9999999999999999
 40
0.9999999999999999
 10
205.8054324564801
 20
103.7583049706976
 30
0.0
 10
206.3332467442677
 20
103.596040557931
 30
0.0
 10
207.398552636383
 20
103.268536663094
 30
0.0
 10
208.4998045654592
 20
103.2081938652237
 30
0.0
 10
209.0554324564801
 20
103.1777483870969
 30
0.0
  0
LINE
  5
2DA
330
1F
100
AcDbEntity
  8
0
  6
Continuous
 62
     7
370
    25
100
AcDbLine
 10
205.8054324565
 20
110.4971918035
 30
0.0
 11
205.8054324565
 21
103.7583049707
 31
0.0
  0
SPLINE
  5
2DB
330
1F
100
AcDbEntity
  8
0
  6
Continuous
 62
     7
370
    25
100
AcDbSpline
210
0.0
220
0.0
230
1.0
 70
     8
 71
     3
 72
     9
 73
     5
 74
     0
 42
0.000000001
 43
0.00000001
 40
0.0
 40
0.0
 40
0.0
 40
0.0
 40
0.4954579634770042
 40
0.9999999999999999
 40
0.9999999999999999
 40
0.9999999999999999
 40
0.9999999999999999
 10
212.3054324564802
 20
110.4971918034961
 30
0.0
 10
212.8332467442677
 20
110.6594562162631
 30
0.0
 10
213.898552636383
 20
110.9869601111003
 30
0.0
 10
214.9998045654592
 20
111.04730290897
 30
0.0
 10
215.5554324564802
 20
111.077748387097
 30
0.0
  0
SPLINE
  5
2DC
330
1F
100
AcDbEntity
  8
0
  6
Continuous
 62
     7
370
    25
100
AcDbSpline
210
0.0
220
0.0
230
1.0
 70
     8
 71
     3
 72
    10
 73
     6
 74
     0
 42
0.000000001
 43
0.00000001
 40
0.0
 40
0.0
 40
0.0
 40
0.0
 40
0.0700769119681885
 40
0.530777664039407
 40
0.9999999999999999
 40
0.9999999999999999
 40
0.9999999999999999
 40
0.9999999999999999
 10
215.5554324564802
 20
111.0777483870968
 30
0.0
 10
215.6324535134248
 20
111.0770554488684
 30
0.0
 10
216.2158276310724
 20
111.0718069850901
 30
0.0
 10
217.3157648025695
 20
110.9450157740722
 30
0.0
 10
218.3058522667538
 20
110.6473756271141
 30
0.0
 10
218.8054324564802
 20
110.4971918034962
 30
0.0
  0
LINE
  5
2DD
330
1F
100
AcDbEntity
  8
0
  6
Continuous
 62
     7
370
    25
100
AcDbLine
 10
218.8054324565
 20
110.4971918035
 30
0.0
 11
218.8054324565
 21
103.7583049707
 31
0.0
  0
SPLINE
  5
2DE
330
1F
100
AcDbEntity
  8
0
  6
Continuous
 62
     7
370
    25
100
AcDbSpline
210
0.0
220
0.0
230
1.0
 70
     8
 71
     3
 72
    10
 73
     6
 74
     0
 42
0.000000001
 43
0.00000001
 40
0.0
 40
0.0
 40
0.0
 40
0.0
 40
0.0700769119681885
 40
0.530777664039407
 40
0.9999999999999999
 40
0.9999999999999999
 40
0.9999999999999999
 40
0.9999999999999999
 10
215.5554324564802
 20
103.1777483870968
 30
0.0
 10
215.6324535134248
 20
103.1784413253253
 30
0.0
 10
216.2158276310724
 20
103.1836897891049
 30
0.0
 10
217.3157648025695
 20
103.3104810001214
 30
0.0
 10
218.3058522667538
 20
103.6081211470795
 30
0.0
 10
218.8054324564802
 20
103.7583049706977
 30
0.0
  0
SPLINE
  5
2DF
330
1F
100
AcDbEntity
  8
0
  6
Continuous
 62
     7
370
    25
100
AcDbSpline
210
0.0
220
0.0
230
1.0
 70
     8
 71
     3
 72
     9
 73
     5
 74
     0
 42
0.000000001
 43
0.00000001
 40
0.0
 40
0.0
 40
0.0
 40
0.0
 40
0.4954579634770042
 40
0.9999999999999999
 40
0.9999999999999999
 40
0.9999999999999999
 40
0.9999999999999999
 10
212.3054324564802
 20
103.7583049706976
 30
0.0
 10
212.8332467442677
 20
103.596040557931
 30
0.0
 10
213.898552636383
 20
103.268536663094
 30
0.0
 10
214.9998045654592
 20
103.2081938652237
 30
0.0
 10
215.5554324564802
 20
103.1777483870969
 30
0.0
  0
LINE
  5
2E0
330
1F
100
AcDbEntity
  8
0
  6
Continuous
 62
     7
370
    25
100
AcDbLine
 10
209.0554324565
 20
103.1777483871
 30
0.0
 11
215.5554324565
 21
103.1777483871
 31
0.0
  0
SPLINE
  5
2E1
330
1F
100
AcDbEntity
  8
0
  6
Continuous
 62
     7
370
    25
100
AcDbSpline
210
0.0
220
0.0
230
1.0
 70
    24
 71
     3
 72
    10
 73
     6
 74
     0
 42
0.000000001
 43
0.00000001
 40
0.0
 40
0.0
 40
0.0
 40
0.0
 40
0.2684065359321924
 40
0.6323728964502903
 40
1.0
 40
1.0
 40
1.0
 40
1.0
 10
218.8054324564802
 20
111.077748387097
 30
0.0
 10
218.8054324564802
 20
111.0683159065979
 30
0.0
 10
218.8054324564802
 20
111.0460927331086
 30
0.0
 10
218.8054324564802
 20
110.8552136977775
 30
0.0
 10
218.8054324564802
 20
110.6169298759809
 30
0.0
 10
218.8054324564802
 20
110.4971918034962
 30
0.0
  0
SPLINE
  5
2E2
330
1F
100
AcDbEntity
  8
0
  6
Continuous
 62
     7
370
    25
100
AcDbSpline
210
0.0
220
0.0
230
1.0
 70
    24
 71
     3
 72
    10
 73
     6
 74
     0
 42
0.000000001
 43
0.00000001
 40
0.0
 40
0.0
 40
0.0
 40
0.0
 40
0.2684065359321924
 40
0.6323728964502903
 40
1.0
 40
1.0
 40
1.0
 40
1.0
 10
205.8054324564801
 20
111.077748387097
 30
0.0
 10
205.8054324564801
 20
111.0683159065979
 30
0.0
 10
205.8054324564801
 20
111.0460927331086
 30
0.0
 10
205.8054324564801
 20
110.8552136977775
 30
0.0
 10
205.8054324564801
 20
110.6169298759809
 30
0.0
 10
205.8054324564801
 20
110.4971918034962
 30
0.0
  0
SPLINE
  5
2E3
330
1F
100
AcDbEntity
  8
0
  6
Continuous
 62
     7
370
    25
100
AcDbSpline
210
0.0
220
0.0
230
1.0
 70
    24
 71
     3
 72
    10
 73
     6
 74
     0
 42
0.000000001
 43
0.00000001
 40
0.0
 40
0.0
 40
0.0
 40
0.0
 40
0.2684065359321917
 40
0.6323728964502843
 40
1.0
 40
1.0
 40
1.0
 40
1.0
 10
218.8054324564802
 20
103.1777483870969
 30
0.0
 10
218.8054324564802
 20
103.1871808675957
 30
0.0
 10
218.8054324564802
 20
103.2094040410853
 30
0.0
 10
218.8054324564802
 20
103.4002830764159
 30
0.0
 10
218.8054324564802
 20
103.6385668982128
 30
0.0
 10
218.8054324564802
 20
103.7583049706977
 30
0.0
  0
LINE
  5
2E4
330
1F
100
AcDbEntity
  8
0
  6
Continuous
 62
     7
370
    25
100
AcDbLine
 10
218.8054324565
 20
103.1777483871
 30
0.0
 11
215.5554324565
 21
103.1777483871
 31
0.0
  0
SPLINE
  5
2E5
330
1F
100
AcDbEntity
  8
0
  6
Continuous
 62
     7
370
    25
100
AcDbSpline
210
0.0
220
0.0
230
1.0
 70
    24
 71
     3
 72
    10
 73
     6
 74
     0
 42
0.000000001
 43
0.00000001
 40
0.0
 40
0.0
 40
0.0
 40
0.0
 40
0.2684065359321932
 40
0.632372896450284
 40
0.9999999999999999
 40
0.9999999999999999
 40
0.9999999999999999
 40
0.9999999999999999
 10
205.8054324564801
 20
103.1777483870969
 30
0.0
 10
205.8054324564801
 20
103.1871808675957
 30
0.0
 10
205.8054324564801
 20
103.2094040410852
 30
0.0
 10
205.8054324564801
 20
103.4002830764163
 30
0.0
 10
205.8054324564801
 20
103.6385668982129
 30
0.0
 10
205.8054324564801
 20
103.7583049706977
 30
0.0
  0
LINE
  5
2E6
330
1F
100
AcDbEntity
  8
0
  6
Continuous
 62
     7
370
    25
100
AcDbLine
 10
205.8054324565
 20
103.1777483871
 30
0.0
 11
209.0554324565
 21
103.1777483871
 31
0.0
  0
SPLINE
  5
2E7
330
1F
100
AcDbEntity
  8
0
  6
Continuous
 62
     7
370
    25
100
AcDbSpline
210
0.0
220
0.0
230
1.0
 70
     8
 71
     3
 72
     9
 73
     5
 74
     0
 42
0.000000001
 43
0.00000001
 40
0.0
 40
0.0
 40
0.0
 40
0.0
 40
0.4954579634770042
 40
0.9999999999999999
 40
0.9999999999999999
 40
0.9999999999999999
 40
0.9999999999999999
 10
66.30543245648012
 20
110.4971918034961
 30
0.0
 10
66.83324674426767
 20
110.6594562162631
 30
0.0
 10
67.89855263638304
 20
110.9869601111003
 30
0.0
 10
68.99980456545916
 20
111.04730290897
 30
0.0
 10
69.55543245648015
 20
111.077748387097
 30
0.0
  0
SPLINE
  5
2E8
330
1F
100
AcDbEntity
  8
0
  6
Continuous
 62
     7
370
    25
100
AcDbSpline
210
0.0
220
0.0
230
1.0
 70
     8
 71
     3
 72
    10
 73
     6
 74
     0
 42
0.000000001
 43
0.00000001
 40
0.0
 40
0.0
 40
0.0
 40
0.0
 40
0.0700769119681885
 40
0.530777664039407
 40
0.9999999999999999
 40
0.9999999999999999
 40
0.9999999999999999
 40
0.9999999999999999
 10
69.55543245648012
 20
111.0777483870968
 30
0.0
 10
69.63245351342475
 20
111.0770554488684
 30
0.0
 10
70.2158276310725
 20
111.0718069850901
 30
0.0
 10
71.3157648025695
 20
110.9450157740722
 30
0.0
 10
72.3058522667538
 20
110.6473756271141
 30
0.0
 10
72.80543245648015
 20
110.4971918034962
 30
0.0
  0
LINE
  5
2E9
330
1F
100
AcDbEntity
  8
0
  6
Continuous
 62
     7
370
    25
100
AcDbLine
 10
72.8054324565
 20
110.4971918035
 30
0.0
 11
72.8054324565
 21
103.7583049707
 31
0.0
  0
SPLINE
  5
2EA
330
1F
100
AcDbEntity
  8
0
  6
Continuous
 62
     7
370
    25
100
AcDbSpline
210
0.0
220
0.0
230
1.0
 70
     8
 71
     3
 72
    10
 73
     6
 74
     0
 42
0.000000001
 43
0.00000001
 40
0.0
 40
0.0
 40
0.0
 40
0.0
 40
0.0700769119681885
 40
0.530777664039407
 40
0.9999999999999999
 40
0.9999999999999999
 40
0.9999999999999999
 40
0.9999999999999999
 10
69.55543245648012
 20
103.1777483870968
 30
0.0
 10
69.63245351342475
 20
103.1784413253253
 30
0.0
 10
70.2158276310725
 20
103.1836897891049
 30
0.0
 10
71.3157648025695
 20
103.3104810001214
 30
0.0
 10
72.3058522667538
 20
103.6081211470795
 30
0.0
 10
72.80543245648015
 20
103.7583049706977
 30
0.0
  0
SPLINE
  5
2EB
330
1F
100
AcDbEntity
  8
0
  6
Continuous
 62
     7
370
    25
100
AcDbSpline
210
0.0
220
0.0
230
1.0
 70
     8
 71
     3
 72
     9
 73
     5
 74
     0
 42
0.000000001
 43
0.00000001
 40
0.0
 40
0.0
 40
0.0
 40
0.0
 40
0.4954579634770042
 40
0.9999999999999999
 40
0.9999999999999999
 40
0.9999999999999999
 40
0.9999999999999999
 10
66.30543245648012
 20
103.7583049706976
 30
0.0
 10
66.83324674426767
 20
103.596040557931
 30
0.0
 10
67.89855263638304
 20
103.268536663094
 30
0.0
 10
68.99980456545916
 20
103.2081938652237
 30
0.0
 10
69.55543245648015
 20
103.1777483870969
 30
0.0
  0
LINE
  5
2EC
330
1F
100
AcDbEntity
  8
0
  6
Continuous
 62
     7
370
    25
100
AcDbLine
 10
66.3054324565
 20
110.4971918035
 30
0.0
 11
66.3054324565
 21
103.7583049707
 31
0.0
  0
SPLINE
  5
2ED
330
1F
100
AcDbEntity
  8
0
  6
Continuous
 62
     7
370
    25
100
AcDbSpline
210
0.0
220
0.0
230
1.0
 70
     8
 71
     3
 72
    10
 73
     6
 74
     0
 42
0.000000001
 43
0.00000001
 40
0.0
 40
0.0
 40
0.0
 40
0.0
 40
0.0700769119681892
 40
0.5307776640394126
 40
1.0
 40
1.0
 40
1.0
 40
1.0
 10
63.05543245648014
 20
111.077748387097
 30
0.0
 10
63.13245351342476
 20
111.0770554488685
 30
0.0
 10
63.71582763107244
 20
111.0718069850896
 30
0.0
 10
64.81576480256955
 20
110.9450157740726
 30
0.0
 10
65.80585226675383
 20
110.6473756271144
 30
0.0
 10
66.30543245648015
 20
110.4971918034962
 30
0.0
  0
SPLINE
  5
2EE
330
1F
100
AcDbEntity
  8
0
  6
Continuous
 62
     7
370
    25
100
AcDbSpline
210
0.0
220
0.0
230
1.0
 70
     8
 71
     3
 72
     9
 73
     5
 74
     0
 42
0.000000001
 43
0.00000001
 40
0.0
 40
0.0
 40
0.0
 40
0.0
 40
0.4954579634770029
 40
1.0
 40
1.0
 40
1.0
 40
1.0
 10
59.80543245648014
 20
110.4971918034962
 30
0.0
 10
60.33324674426764
 20
110.6594562162631
 30
0.0
 10
61.39855263638298
 20
110.9869601111003
 30
0.0
 10
62.49980456545916
 20
111.0473029089702
 30
0.0
 10
63.05543245648014
 20
111.077748387097
 30
0.0
  0
SPLINE
  5
2EF
330
1F
100
AcDbEntity
  8
0
  6
Continuous
 62
     7
370
    25
100
AcDbSpline
210
0.0
220
0.0
230
1.0
 70
     8
 71
     3
 72
    10
 73
     6
 74
     0
 42
0.000000001
 43
0.00000001
 40
0.0
 40
0.0
 40
0.0
 40
0.0
 40
0.0700769119681883
 40
0.5307776640394126
 40
1.0
 40
1.0
 40
1.0
 40
1.0
 10
63.05543245648014
 20
103.1777483870969
 30
0.0
 10
63.13245351342476
 20
103.1784413253254
 30
0.0
 10
63.71582763107246
 20
103.1836897891041
 30
0.0
 10
64.81576480256952
 20
103.3104810001214
 30
0.0
 10
65.8058522667538
 20
103.6081211470795
 30
0.0
 10
66.30543245648015
 20
103.7583049706977
 30
0.0
  0
SPLINE
  5
2F0
330
1F
100
AcDbEntity
  8
0
  6
Continuous
 62
     7
370
    25
100
AcDbSpline
210
0.0
220
0.0
230
1.0
 70
     8
 71
     3
 72
     9
 73
     5
 74
     0
 42
0.000000001
 43
0.00000001
 40
0.0
 40
0.0
 40
0.0
 40
0.0
 40
0.4954579634770042
 40
0.9999999999999999
 40
0.9999999999999999
 40
0.9999999999999999
 40
0.9999999999999999
 10
59.80543245648011
 20
103.7583049706976
 30
0.0
 10
60.33324674426767
 20
103.596040557931
 30
0.0
 10
61.39855263638301
 20
103.268536663094
 30
0.0
 10
62.49980456545919
 20
103.2081938652237
 30
0.0
 10
63.05543245648014
 20
103.1777483870969
 30
0.0
  0
LINE
  5
2F1
330
1F
100
AcDbEntity
  8
0
  6
Continuous
 62
     7
370
    25
100
AcDbLine
 10
59.8054324565
 20
110.4971918035
 30
0.0
 11
59.8054324565
 21
103.7583049707
 31
0.0
  0
LINE
  5
2F2
330
1F
100
AcDbEntity
  8
0
  6
Continuous
 62
     7
370
    25
100
AcDbLine
 10
63.0554324565
 20
103.1777483871
 30
0.0
 11
69.5554324565
 21
103.1777483871
 31
0.0
  0
SPLINE
  5
2F3
330
1F
100
AcDbEntity
  8
0
  6
Continuous
 62
     7
370
    25
100
AcDbSpline
210
0.0
220
0.0
230
1.0
 70
    24
 71
     3
 72
    10
 73
     6
 74
     0
 42
0.000000001
 43
0.00000001
 40
0.0
 40
0.0
 40
0.0
 40
0.0
 40
0.2684065359321924
 40
0.6323728964502903
 40
1.0
 40
1.0
 40
1.0
 40
1.0
 10
72.80543245648015
 20
111.077748387097
 30
0.0
 10
72.80543245648012
 20
111.0683159065979
 30
0.0
 10
72.80543245648012
 20
111.0460927331086
 30
0.0
 10
72.80543245648018
 20
110.8552136977775
 30
0.0
 10
72.80543245648015
 20
110.6169298759809
 30
0.0
 10
72.80543245648015
 20
110.4971918034962
 30
0.0
  0
SPLINE
  5
2F4
330
1F
100
AcDbEntity
  8
0
  6
Continuous
 62
     7
370
    25
100
AcDbSpline
210
0.0
220
0.0
230
1.0
 70
    24
 71
     3
 72
    10
 73
     6
 74
     0
 42
0.000000001
 43
0.00000001
 40
0.0
 40
0.0
 40
0.0
 40
0.0
 40
0.2684065359321924
 40
0.6323728964502903
 40
1.0
 40
1.0
 40
1.0
 40
1.0
 10
59.80543245648014
 20
111.077748387097
 30
0.0
 10
59.80543245648011
 20
111.0683159065979
 30
0.0
 10
59.80543245648014
 20
111.0460927331086
 30
0.0
 10
59.80543245648011
 20
110.8552136977775
 30
0.0
 10
59.80543245648016
 20
110.6169298759809
 30
0.0
 10
59.80543245648014
 20
110.4971918034962
 30
0.0
  0
SPLINE
  5
2F5
330
1F
100
AcDbEntity
  8
0
  6
Continuous
 62
     7
370
    25
100
AcDbSpline
210
0.0
220
0.0
230
1.0
 70
    24
 71
     3
 72
    10
 73
     6
 74
     0
 42
0.000000001
 43
0.00000001
 40
0.0
 40
0.0
 40
0.0
 40
0.0
 40
0.2684065359321932
 40
0.632372896450284
 40
0.9999999999999999
 40
0.9999999999999999
 40
0.9999999999999999
 40
0.9999999999999999
 10
59.80543245648014
 20
103.1777483870969
 30
0.0
 10
59.80543245648016
 20
103.1871808675957
 30
0.0
 10
59.80543245648014
 20
103.2094040410852
 30
0.0
 10
59.80543245648011
 20
103.4002830764163
 30
0.0
 10
59.80543245648016
 20
103.6385668982129
 30
0.0
 10
59.80543245648014
 20
103.7583049706977
 30
0.0
  0
LINE
  5
2F6
330
1F
100
AcDbEntity
  8
0
  6
Continuous
 62
     7
370
    25
100
AcDbLine
 10
59.8054324565
 20
103.1777483871
 30
0.0
 11
63.0554324565
 21
103.1777483871
 31
0.0
  0
SPLINE
  5
2F7
330
1F
100
AcDbEntity
  8
0
  6
Continuous
 62
     7
370
    25
100
AcDbSpline
210
0.0
220
0.0
230
1.0
 70
    24
 71
     3
 72
    10
 73
     6
 74
     0
 42
0.000000001
 43
0.00000001
 40
0.0
 40
0.0
 40
0.0
 40
0.0
 40
0.2684065359321917
 40
0.6323728964502843
 40
1.0
 40
1.0
 40
1.0
 40
1.0
 10
72.80543245648015
 20
103.1777483870969
 30
0.0
 10
72.80543245648015
 20
103.1871808675957
 30
0.0
 10
72.80543245648018
 20
103.2094040410853
 30
0.0
 10
72.80543245648009
 20
103.4002830764159
 30
0.0
 10
72.80543245648012
 20
103.6385668982128
 30
0.0
 10
72.80543245648015
 20
103.7583049706977
 30
0.0
  0
LINE
  5
2F8
330
1F
100
AcDbEntity
  8
0
  6
Continuous
 62
     7
370
    25
100
AcDbLine
 10
72.8054324565
 20
103.1777483871
 30
0.0
 11
69.5554324565
 21
103.1777483871
 31
0.0
  0
LINE
  5
2F9
330
1F
100
AcDbEntity
  8
0
  6
Continuous
 62
     7
370
    25
100
AcDbLine
 10
61.8054324565
 20
116.0777483871
 30
0.0
 11
61.8054324565
 21
118.0777483871
 31
0.0
  0
LINE
  5
2FA
330
1F
100
AcDbEntity
  8
0
  6
Continuous
 62
     7
370
    25
100
AcDbLine
 10
88.8054324565
 20
116.0777483871
 30
0.0
 11
76.8054324565
 21
116.0777483871
 31
0.0
  0
LINE
  5
2FB
330
1F
100
AcDbEntity
  8
0
  6
Continuous
 62
     7
370
    25
100
AcDbLine
 10
88.8054324565
 20
116.0777483871
 30
0.0
 11
88.8054324565
 21
118.0777483871
 31
0.0
  0
LINE
  5
2FC
330
1F
100
AcDbEntity
  8
0
  6
Continuous
 62
     7
370
    25
100
AcDbLine
 10
88.8054324565
 20
118.0777483871
 30
0.0
 11
76.8054324565
 21
118.0777483871
 31
0.0
  0
LINE
  5
2FD
330
1F
100
AcDbEntity
  8
0
  6
Continuous
 62
     7
370
    25
100
AcDbLine
 10
189.8054324565
 20
116.0777483871
 30
0.0
 11
189.8054324565
 21
118.0777483871
 31
0.0
  0
LINE
  5
2FE
330
1F
100
AcDbEntity
  8
0
  6
Continuous
 62
     7
370
    25
100
AcDbLine
 10
201.8054324565
 20
116.0777483871
 30
0.0
 11
189.8054324565
 21
116.0777483871
 31
0.0
  0
LINE
  5
2FF
330
1F
100
AcDbEntity
  8
0
  6
Continuous
 62
     7
370
    25
100
AcDbLine
 10
201.8054324565
 20
118.0777483871
 30
0.0
 11
189.8054324565
 21
118.0777483871
 31
0.0
  0
LINE
  5
300
330
1F
100
AcDbEntity
  8
0
  6
Continuous
 62
     7
370
    25
100
AcDbLine
 10
216.8054324565
 20
118.0777483871
 30
0.0
 11
216.8054324565
 21
116.0777483871
 31
0.0
  0
LINE
  5
301
330
1F
100
AcDbEntity
  8
0
  6
Continuous
 62
     7
370
    25
100
AcDbLine
 10
189.8054324565
 20
116.0777483871
 30
0.0
 11
88.8054324565
 21
116.0777483871
 31
0.0
  0
LINE
  5
302
330
1F
100
AcDbEntity
  8
0
  6
Continuous
 62
     7
370
    25
100
AcDbLine
 10
189.8054324565
 20
118.0777483871
 30
0.0
 11
88.8054324565
 21
118.0777483871
 31
0.0
  0
LINE
  5
303
330
1F
100
AcDbEntity
  8
0
  6
Continuous
 62
     7
370
    25
100
AcDbLine
 10
76.8054324565
 20
113.0777483871
 30
0.0
 11
76.8054324565
 21
116.0777483871
 31
0.0
  0
LINE
  5
304
330
1F
100
AcDbEntity
  8
0
  6
Continuous
 62
     7
370
    25
100
AcDbLine
 10
76.8054324565
 20
113.0777483871
 30
0.0
 11
72.8054324565
 21
113.0777483871
 31
0.0
  0
LINE
  5
305
330
1F
100
AcDbEntity
  8
0
  6
Continuous
 62
     7
370
    25
100
AcDbLine
 10
72.8054324565
 20
113.0777483871
 30
0.0
 11
72.8054324565
 21
116.0777483871
 31
0.0
  0
LINE
  5
306
330
1F
100
AcDbEntity
  8
0
  6
Continuous
 62
     7
370
    25
100
AcDbLine
 10
76.8054324565
 20
116.0777483871
 30
0.0
 11
72.8054324565
 21
116.0777483871
 31
0.0
  0
LINE
  5
307
330
1F
100
AcDbEntity
  8
0
  6
Continuous
 62
     7
370
    25
100
AcDbLine
 10
221.3054324565
 20
113.0777483871
 30
0.0
 11
221.3054324565
 21
116.0777483871
 31
0.0
  0
LINE
  5
308
330
1F
100
AcDbEntity
  8
0
  6
Continuous
 62
     7
370
    25
100
AcDbLine
 10
221.3054324565
 20
113.0777483871
 30
0.0
 11
221.1367948027
 21
113.0777483871
 31
0.0
  0
LINE
  5
309
330
1F
100
AcDbEntity
  8
0
  6
Continuous
 62
     7
370
    25
100
AcDbLine
 10
218.7220991231
 20
113.0777483871
 30
0.0
 11
205.8054324565
 21
113.0777483871
 31
0.0
  0
LINE
  5
30A
330
1F
100
AcDbEntity
  8
0
  6
Continuous
 62
     7
370
    25
100
AcDbLine
 10
205.8054324565
 20
113.0777483871
 30
0.0
 11
205.8054324565
 21
116.0777483871
 31
0.0
  0
LINE
  5
30B
330
1F
100
AcDbEntity
  8
0
  6
Continuous
 62
     7
370
    25
100
AcDbLine
 10
221.3054324565
 20
116.0777483871
 30
0.0
 11
205.8054324565
 21
116.0777483871
 31
0.0
  0
LINE
  5
30C
330
1F
100
AcDbEntity
  8
0
  6
Continuous
 62
     7
370
    25
100
AcDbLine
 10
72.8054324565
 20
113.0777483871
 30
0.0
 11
59.8887657898
 21
113.0777483871
 31
0.0
  0
LINE
  5
30D
330
1F
100
AcDbEntity
  8
0
  6
Continuous
 62
     7
370
    25
100
AcDbLine
 10
57.4740701102
 20
113.0777483871
 30
0.0
 11
57.3054324565
 21
113.0777483871
 31
0.0
  0
LINE
  5
30E
330
1F
100
AcDbEntity
  8
0
  6
Continuous
 62
     7
370
    25
100
AcDbLine
 10
57.3054324565
 20
113.0777483871
 30
0.0
 11
57.3054324565
 21
116.0777483871
 31
0.0
  0
LINE
  5
30F
330
1F
100
AcDbEntity
  8
0
  6
Continuous
 62
     7
370
    25
100
AcDbLine
 10
72.8054324565
 20
116.0777483871
 30
0.0
 11
57.3054324565
 21
116.0777483871
 31
0.0
  0
LINE
  5
310
330
1F
100
AcDbEntity
  8
0
  6
Continuous
 62
     7
370
    25
100
AcDbLine
 10
205.8054324565
 20
113.0777483871
 30
0.0
 11
201.8054324565
 21
113.0777483871
 31
0.0
  0
LINE
  5
311
330
1F
100
AcDbEntity
  8
0
  6
Continuous
 62
     7
370
    25
100
AcDbLine
 10
205.8054324565
 20
116.0777483871
 30
0.0
 11
201.8054324565
 21
116.0777483871
 31
0.0
  0
LINE
  5
312
330
1F
100
AcDbEntity
  8
0
  6
Continuous
 62
     7
370
    25
100
AcDbLine
 10
201.8054324565
 20
113.0777483871
 30
0.0
 11
201.8054324565
 21
116.0777483871
 31
0.0
  0
LINE
  5
313
330
1F
100
AcDbEntity
  8
0
  6
Continuous
 62
     7
370
    25
100
AcDbLine
 10
238.8054324565
 20
113.0777483871
 30
0.0
 11
238.8054324565
 21
116.0777483871
 31
0.0
  0
LINE
  5
314
330
1F
100
AcDbEntity
  8
0
  6
Continuous
 62
     7
370
    25
100
AcDbLine
 10
238.8054324565
 20
113.0777483871
 30
0.0
 11
221.3054324565
 21
113.0777483871
 31
0.0
  0
LINE
  5
315
330
1F
100
AcDbEntity
  8
0
  6
Continuous
 62
     7
370
    25
100
AcDbLine
 10
238.8054324565
 20
116.0777483871
 30
0.0
 11
221.3054324565
 21
116.0777483871
 31
0.0
  0
LINE
  5
316
330
1F
100
AcDbEntity
  8
0
  6
Continuous
 62
     7
370
    25
100
AcDbLine
 10
39.8054324565
 20
113.0777483871
 30
0.0
 11
39.8054324565
 21
116.0777483871
 31
0.0
  0
LINE
  5
317
330
1F
100
AcDbEntity
  8
0
  6
Continuous
 62
     7
370
    25
100
AcDbLine
 10
57.3054324565
 20
113.0777483871
 30
0.0
 11
39.8054324565
 21
113.0777483871
 31
0.0
  0
LINE
  5
318
330
1F
100
AcDbEntity
  8
0
  6
Continuous
 62
     7
370
    25
100
AcDbLine
 10
57.3054324565
 20
116.0777483871
 30
0.0
 11
39.8054324565
 21
116.0777483871
 31
0.0
  0
LINE
  5
319
330
1F
100
AcDbEntity
  8
0
  6
Continuous
 62
     7
370
    25
100
AcDbLine
 10
80.8054324565
 20
113.0777483871
 30
0.0
 11
76.8054324565
 21
113.0777483871
 31
0.0
  0
LINE
  5
31A
330
1F
100
AcDbEntity
  8
0
  6
Continuous
 62
     7
370
    25
100
AcDbLine
 10
201.8054324565
 20
113.0777483871
 30
0.0
 11
197.8054324565
 21
113.0777483871
 31
0.0
  0
LINE
  5
31B
330
1F
100
AcDbEntity
  8
0
  6
Continuous
 62
     7
370
    25
100
AcDbLine
 10
87.8327133875
 20
113.0777483871
 30
0.0
 11
85.3327133875
 21
113.0777483871
 31
0.0
  0
LINE
  5
31C
330
1F
100
AcDbEntity
  8
0
  6
Continuous
 62
     7
370
    25
100
AcDbLine
 10
193.2781515255
 20
113.0777483871
 30
0.0
 11
190.7781515255
 21
113.0777483871
 31
0.0
  0
LINE
  5
31D
330
1F
100
AcDbEntity
  8
0
  6
Continuous
 62
     7
370
    25
100
AcDbLine
 10
85.3327133875
 20
113.0777483871
 30
0.0
 11
80.8054324565
 21
113.0777483871
 31
0.0
  0
LINE
  5
31E
330
1F
100
AcDbEntity
  8
0
  6
Continuous
 62
     7
370
    25
100
AcDbLine
 10
197.8054324565
 20
113.0777483871
 30
0.0
 11
193.2781515255
 21
113.0777483871
 31
0.0
  0
LINE
  5
31F
330
1F
100
AcDbEntity
  8
0
  6
Continuous
 62
     7
370
    25
100
AcDbLine
 10
190.7781515255
 20
113.0777483871
 30
0.0
 11
87.8327133875
 21
113.0777483871
 31
0.0
  0
LINE
  5
320
330
1F
100
AcDbEntity
  8
0
  6
Continuous
 62
     7
370
    25
100
AcDbLine
 10
205.8054324565
 20
118.0777483871
 30
0.0
 11
205.8054324565
 21
121.0777483871
 31
0.0
  0
LINE
  5
321
330
1F
100
AcDbEntity
  8
0
  6
Continuous
 62
     7
370
    25
100
AcDbLine
 10
205.8054324565
 20
118.0777483871
 30
0.0
 11
201.8054324565
 21
118.0777483871
 31
0.0
  0
LINE
  5
322
330
1F
100
AcDbEntity
  8
0
  6
Continuous
 62
     7
370
    25
100
AcDbLine
 10
201.8054324565
 20
118.0777483871
 30
0.0
 11
201.8054324565
 21
121.0777483871
 31
0.0
  0
LINE
  5
323
330
1F
100
AcDbEntity
  8
0
  6
Continuous
 62
     7
370
    25
100
AcDbLine
 10
205.8054324565
 20
121.0777483871
 30
0.0
 11
201.8054324565
 21
121.0777483871
 31
0.0
  0
LINE
  5
324
330
1F
100
AcDbEntity
  8
0
  6
Continuous
 62
     7
370
    25
100
AcDbLine
 10
221.3054324565
 20
118.0777483871
 30
0.0
 11
221.3054324565
 21
121.0777483871
 31
0.0
  0
LINE
  5
325
330
1F
100
AcDbEntity
  8
0
  6
Continuous
 62
     7
370
    25
100
AcDbLine
 10
221.3054324565
 20
118.0777483871
 30
0.0
 11
205.8054324565
 21
118.0777483871
 31
0.0
  0
LINE
  5
326
330
1F
100
AcDbEntity
  8
0
  6
Continuous
 62
     7
370
    25
100
AcDbLine
 10
221.3054324565
 20
121.0777483871
 30
0.0
 11
221.1367948027
 21
121.0777483871
 31
0.0
  0
LINE
  5
327
330
1F
100
AcDbEntity
  8
0
  6
Continuous
 62
     7
370
    25
100
AcDbLine
 10
218.7220991231
 20
121.0777483871
 30
0.0
 11
205.8054324565
 21
121.0777483871
 31
0.0
  0
LINE
  5
328
330
1F
100
AcDbEntity
  8
0
  6
Continuous
 62
     7
370
    25
100
AcDbLine
 10
76.8054324565
 20
118.0777483871
 30
0.0
 11
76.8054324565
 21
121.0777483871
 31
0.0
  0
LINE
  5
329
330
1F
100
AcDbEntity
  8
0
  6
Continuous
 62
     7
370
    25
100
AcDbLine
 10
76.8054324565
 20
118.0777483871
 30
0.0
 11
72.8054324565
 21
118.0777483871
 31
0.0
  0
LINE
  5
32A
330
1F
100
AcDbEntity
  8
0
  6
Continuous
 62
     7
370
    25
100
AcDbLine
 10
72.8054324565
 20
118.0777483871
 30
0.0
 11
72.8054324565
 21
121.0777483871
 31
0.0
  0
LINE
  5
32B
330
1F
100
AcDbEntity
  8
0
  6
Continuous
 62
     7
370
    25
100
AcDbLine
 10
76.8054324565
 20
121.0777483871
 30
0.0
 11
72.8054324565
 21
121.0777483871
 31
0.0
  0
LINE
  5
32C
330
1F
100
AcDbEntity
  8
0
  6
Continuous
 62
     7
370
    25
100
AcDbLine
 10
72.8054324565
 20
118.0777483871
 30
0.0
 11
57.3054324565
 21
118.0777483871
 31
0.0
  0
LINE
  5
32D
330
1F
100
AcDbEntity
  8
0
  6
Continuous
 62
     7
370
    25
100
AcDbLine
 10
57.3054324565
 20
118.0777483871
 30
0.0
 11
57.3054324565
 21
121.0777483871
 31
0.0
  0
LINE
  5
32E
330
1F
100
AcDbEntity
  8
0
  6
Continuous
 62
     7
370
    25
100
AcDbLine
 10
72.8054324565
 20
121.0777483871
 30
0.0
 11
59.8887657898
 21
121.0777483871
 31
0.0
  0
LINE
  5
32F
330
1F
100
AcDbEntity
  8
0
  6
Continuous
 62
     7
370
    25
100
AcDbLine
 10
57.4740701102
 20
121.0777483871
 30
0.0
 11
57.3054324565
 21
121.0777483871
 31
0.0
  0
LINE
  5
330
330
1F
100
AcDbEntity
  8
0
  6
Continuous
 62
     7
370
    25
100
AcDbLine
 10
238.8054324565
 20
118.0777483871
 30
0.0
 11
238.8054324565
 21
121.0777483871
 31
0.0
  0
LINE
  5
331
330
1F
100
AcDbEntity
  8
0
  6
Continuous
 62
     7
370
    25
100
AcDbLine
 10
238.8054324565
 20
118.0777483871
 30
0.0
 11
221.3054324565
 21
118.0777483871
 31
0.0
  0
LINE
  5
332
330
1F
100
AcDbEntity
  8
0
  6
Continuous
 62
     7
370
    25
100
AcDbLine
 10
238.8054324565
 20
121.0777483871
 30
0.0
 11
221.3054324565
 21
121.0777483871
 31
0.0
  0
LINE
  5
333
330
1F
100
AcDbEntity
  8
0
  6
Continuous
 62
     7
370
    25
100
AcDbLine
 10
39.8054324565
 20
118.0777483871
 30
0.0
 11
39.8054324565
 21
121.0777483871
 31
0.0
  0
LINE
  5
334
330
1F
100
AcDbEntity
  8
0
  6
Continuous
 62
     7
370
    25
100
AcDbLine
 10
57.3054324565
 20
118.0777483871
 30
0.0
 11
39.8054324565
 21
118.0777483871
 31
0.0
  0
LINE
  5
335
330
1F
100
AcDbEntity
  8
0
  6
Continuous
 62
     7
370
    25
100
AcDbLine
 10
57.3054324565
 20
121.0777483871
 30
0.0
 11
39.8054324565
 21
121.0777483871
 31
0.0
  0
LINE
  5
336
330
1F
100
AcDbEntity
  8
0
  6
Continuous
 62
     7
370
    25
100
AcDbLine
 10
76.8054324565
 20
121.0777483871
 30
0.0
 11
80.8054324565
 21
121.0777483871
 31
0.0
  0
LINE
  5
337
330
1F
100
AcDbEntity
  8
0
  6
Continuous
 62
     7
370
    25
100
AcDbLine
 10
197.8054324565
 20
121.0777483871
 30
0.0
 11
201.8054324565
 21
121.0777483871
 31
0.0
  0
LINE
  5
338
330
1F
100
AcDbEntity
  8
0
  6
Continuous
 62
     7
370
    25
100
AcDbLine
 10
85.3327133875
 20
121.0777483871
 30
0.0
 11
87.8327133875
 21
121.0777483871
 31
0.0
  0
LINE
  5
339
330
1F
100
AcDbEntity
  8
0
  6
Continuous
 62
     7
370
    25
100
AcDbLine
 10
190.7781515255
 20
121.0777483871
 30
0.0
 11
193.2781515255
 21
121.0777483871
 31
0.0
  0
LINE
  5
33A
330
1F
100
AcDbEntity
  8
0
  6
Continuous
 62
     7
370
    25
100
AcDbLine
 10
85.3327133875
 20
121.0777483871
 30
0.0
 11
80.8054324565
 21
121.0777483871
 31
0.0
  0
LINE
  5
33B
330
1F
100
AcDbEntity
  8
0
  6
Continuous
 62
     7
370
    25
100
AcDbLine
 10
197.8054324565
 20
121.0777483871
 30
0.0
 11
193.2781515255
 21
121.0777483871
 31
0.0
  0
LINE
  5
33C
330
1F
100
AcDbEntity
  8
0
  6
Continuous
 62
     7
370
    25
100
AcDbLine
 10
190.7781515255
 20
121.0777483871
 30
0.0
 11
87.8327133875
 21
121.0777483871
 31
0.0
  0
LINE
  5
33D
330
1F
100
AcDbEntity
  8
0
  6
Continuous
 62
     7
370
    25
100
AcDbLine
 10
58.3054324565
 20
121.0777483871
 30
0.0
 11
58.3054324565
 21
123.0777483871
 31
0.0
  0
LINE
  5
33E
330
1F
100
AcDbEntity
  8
0
  6
Continuous
 62
     7
370
    25
100
AcDbLine
 10
58.3054324565
 20
121.0777483871
 30
0.0
 11
59.8887657898
 21
121.0777483871
 31
0.0
  0
LINE
  5
33F
330
1F
100
AcDbEntity
  8
0
  6
Continuous
 62
     7
370
    25
100
AcDbLine
 10
58.3054324565
 20
123.0777483871
 30
0.0
 11
72.8054324565
 21
123.0777483871
 31
0.0
  0
LINE
  5
340
330
1F
100
AcDbEntity
  8
0
  6
Continuous
 62
     7
370
    25
100
AcDbLine
 10
74.8054324565
 20
123.0777483871
 30
0.0
 11
74.8054324565
 21
121.0777483871
 31
0.0
  0
LINE
  5
341
330
1F
100
AcDbEntity
  8
0
  6
Continuous
 62
     7
370
    25
100
AcDbLine
 10
72.8054324565
 20
123.0777483871
 30
0.0
 11
74.8054324565
 21
123.0777483871
 31
0.0
  0
LINE
  5
342
330
1F
100
AcDbEntity
  8
0
  6
Continuous
 62
     7
370
    25
100
AcDbLine
 10
40.7790305334
 20
123.0777483871
 30
0.0
 11
40.7790305334
 21
121.0777483871
 31
0.0
  0
LINE
  5
343
330
1F
100
AcDbEntity
  8
0
  6
Continuous
 62
     7
370
    25
100
AcDbLine
 10
57.4740701102
 20
121.0777483871
 30
0.0
 11
58.3054324565
 21
121.0777483871
 31
0.0
  0
LINE
  5
344
330
1F
100
AcDbEntity
  8
0
  6
Continuous
 62
     7
370
    25
100
AcDbLine
 10
40.7790305334
 20
123.0777483871
 30
0.0
 11
58.3054324565
 21
123.0777483871
 31
0.0
  0
LINE
  5
345
330
1F
100
AcDbEntity
  8
0
  6
Continuous
 62
     7
370
    25
100
AcDbLine
 10
220.3054324565
 20
121.0777483871
 30
0.0
 11
220.3054324565
 21
123.0777483871
 31
0.0
  0
LINE
  5
346
330
1F
100
AcDbEntity
  8
0
  6
Continuous
 62
     7
370
    25
100
AcDbLine
 10
237.8318343796
 20
123.0777483871
 30
0.0
 11
237.8318343796
 21
121.0777483871
 31
0.0
  0
LINE
  5
347
330
1F
100
AcDbEntity
  8
0
  6
Continuous
 62
     7
370
    25
100
AcDbLine
 10
220.3054324565
 20
121.0777483871
 30
0.0
 11
221.1367948027
 21
121.0777483871
 31
0.0
  0
LINE
  5
348
330
1F
100
AcDbEntity
  8
0
  6
Continuous
 62
     7
370
    25
100
AcDbLine
 10
220.3054324565
 20
123.0777483871
 30
0.0
 11
237.8318343796
 21
123.0777483871
 31
0.0
  0
LINE
  5
349
330
1F
100
AcDbEntity
  8
0
  6
Continuous
 62
     7
370
    25
100
AcDbLine
 10
218.7220991231
 20
121.0777483871
 30
0.0
 11
220.3054324565
 21
121.0777483871
 31
0.0
  0
LINE
  5
34A
330
1F
100
AcDbEntity
  8
0
  6
Continuous
 62
     7
370
    25
100
AcDbLine
 10
205.8054324565
 20
123.0777483871
 30
0.0
 11
220.3054324565
 21
123.0777483871
 31
0.0
  0
LINE
  5
34B
330
1F
100
AcDbEntity
  8
0
  6
Continuous
 62
     7
370
    25
100
AcDbLine
 10
203.8054324565
 20
121.0777483871
 30
0.0
 11
203.8054324565
 21
123.0777483871
 31
0.0
  0
LINE
  5
34C
330
1F
100
AcDbEntity
  8
0
  6
Continuous
 62
     7
370
    25
100
AcDbLine
 10
203.8054324565
 20
123.0777483871
 30
0.0
 11
205.8054324565
 21
123.0777483871
 31
0.0
  0
LINE
  5
34D
330
1F
100
AcDbEntity
  8
0
  6
Continuous
 62
     7
370
    25
100
AcDbLine
 10
74.8054324565
 20
123.0777483871
 30
0.0
 11
78.8054324565
 21
123.0777483871
 31
0.0
  0
LINE
  5
34E
330
1F
100
AcDbEntity
  8
0
  6
Continuous
 62
     7
370
    25
100
AcDbLine
 10
199.8054324565
 20
123.0777483871
 30
0.0
 11
203.8054324565
 21
123.0777483871
 31
0.0
  0
LINE
  5
34F
330
1F
100
AcDbEntity
  8
0
  6
Continuous
 62
     7
370
    25
100
AcDbLine
 10
78.8054324565
 20
123.0777483871
 30
0.0
 11
85.1883814263
 21
123.0777483871
 31
0.0
  0
LINE
  5
350
330
1F
100
AcDbEntity
  8
0
  6
Continuous
 62
     7
370
    25
100
AcDbLine
 10
85.1883814263
 20
123.0777483871
 30
0.0
 11
87.1883814263
 21
123.0777483871
 31
0.0
  0
LINE
  5
351
330
1F
100
AcDbEntity
  8
0
  6
Continuous
 62
     7
370
    25
100
AcDbLine
 10
193.4224834866
 20
123.0777483871
 30
0.0
 11
199.8054324565
 21
123.0777483871
 31
0.0
  0
LINE
  5
352
330
1F
100
AcDbEntity
  8
0
  6
Continuous
 62
     7
370
    25
100
AcDbLine
 10
191.4224834866
 20
123.0777483871
 30
0.0
 11
193.4224834866
 21
123.0777483871
 31
0.0
  0
LINE
  5
353
330
1F
100
AcDbEntity
  8
0
  6
Continuous
 62
     7
370
    25
100
AcDbLine
 10
87.1883814263
 20
123.0777483871
 30
0.0
 11
191.4224834866
 21
123.0777483871
 31
0.0
  0
SPLINE
  5
354
330
1F
100
AcDbEntity
  8
0
  6
Continuous
 62
     7
370
    25
100
AcDbSpline
210
0.0
220
0.0
230
1.0
 70
     8
 71
     3
 72
    12
 73
     8
 74
     0
 42
0.000000001
 43
0.00000001
 40
0.0
 40
0.0
 40
0.0
 40
0.0
 40
0.2335879420900815
 40
0.4537901450808389
 40
0.6739877272615066
 40
0.894185218480903
 40
1.0
 40
1.0
 40
1.0
 40
1.0
 10
237.8318343795571
 20
121.077748387097
 30
0.0
 10
237.9077162706512
 20
121.1135412311506
 30
0.0
 10
238.0551316468922
 20
121.1830758130756
 30
0.0
 10
238.2738979988245
 20
121.7072233693967
 30
0.0
 10
238.4882487404483
 20
122.4460842775228
 30
0.0
 10
238.6658578066302
 20
123.1981841951805
 30
0.0
 10
238.7712311230207
 20
123.6633636845297
 30
0.0
 10
238.8054324564801
 20
123.8143483870969
 30
0.0
  0
SPLINE
  5
355
330
1F
100
AcDbEntity
  8
0
  6
Continuous
 62
     7
370
    25
100
AcDbSpline
210
0.0
220
0.0
230
1.0
 70
     8
 71
     3
 72
    11
 73
     7
 74
     0
 42
0.000000001
 43
0.00000001
 40
0.0
 40
0.0
 40
0.0
 40
0.0
 40
0.2472454926703005
 40
0.5282132489579687
 40
0.8093312418985484
 40
1.0
 40
1.0
 40
1.0
 40
1.0
 10
237.8318343795571
 20
123.0777483870969
 30
0.0
 10
237.9120300666384
 20
123.0886454763297
 30
0.0
 10
238.0833594768054
 20
123.1119259286675
 30
0.0
 10
238.3462410479094
 20
123.3023624085955
 30
0.0
 10
238.5909536805667
 20
123.5591633761951
 30
0.0
 10
238.7437009118283
 20
123.7409007239057
 30
0.0
 10
238.8054324564801
 20
123.8143483870969
 30
0.0
  0
SPLINE
  5
356
330
1F
100
AcDbEntity
  8
0
  6
Continuous
 62
     7
370
    25
100
AcDbSpline
210
0.0
220
0.0
230
1.0
 70
     8
 71
     3
 72
    12
 73
     8
 74
     0
 42
0.000000001
 43
0.00000001
 40
0.0
 40
0.0
 40
0.0
 40
0.0
 40
0.2335879420900659
 40
0.4537901450808092
 40
0.6739877272614917
 40
0.894185218480851
 40
1.0
 40
1.0
 40
1.0
 40
1.0
 10
39.80543245648012
 20
123.8143483870969
 30
0.0
 10
39.88131434757418
 20
123.4794159975893
 30
0.0
 10
40.02872972381528
 20
122.8287444934573
 30
0.0
 10
40.24749607574758
 20
121.9871768905361
 30
0.0
 10
40.46184681737124
 20
121.3826423100125
 30
0.0
 10
40.6394558835534
 20
121.1086029428638
 30
0.0
 10
40.74482919994375
 20
121.085308978878
 30
0.0
 10
40.77903053340319
 20
121.077748387097
 30
0.0
  0
SPLINE
  5
357
330
1F
100
AcDbEntity
  8
0
  6
Continuous
 62
     7
370
    25
100
AcDbSpline
210
0.0
220
0.0
230
1.0
 70
     8
 71
     3
 72
    11
 73
     7
 74
     0
 42
0.000000001
 43
0.00000001
 40
0.0
 40
0.0
 40
0.0
 40
0.0
 40
0.2472454926704253
 40
0.5282132489579143
 40
0.809331241898613
 40
0.9999999999999999
 40
0.9999999999999999
 40
0.9999999999999999
 40
0.9999999999999999
 10
39.80543245648012
 20
123.8143483870972
 30
0.0
 10
39.88562814356146
 20
123.7189525598242
 30
0.0
 10
40.05695755372833
 20
123.5151496944346
 30
0.0
 10
40.31983912483268
 20
123.2541812233352
 30
0.0
 10
40.56455175748959
 20
123.1004106169175
 30
0.0
 10
40.71729898875136
 20
123.084271057912
 30
0.0
 10
40.77903053340319
 20
123.077748387097
 30
0.0
  0
LINE
  5
358
330
1F
100
AcDbEntity
  8
0
  6
Continuous
 62
     7
370
    25
100
AcDbLine
 10
65.3054324565
 20
148.0777483871
 30
0.0
 11
76.8054324565
 21
136.0777483871
 31
0.0
  0
LINE
  5
359
330
1F
100
AcDbEntity
  8
0
  6
Continuous
 62
     7
370
    25
100
AcDbLine
 10
201.8054324565
 20
136.0777483871
 30
0.0
 11
76.8054324565
 21
136.0777483871
 31
0.0
  0
LINE
  5
35A
330
1F
100
AcDbEntity
  8
0
  6
Continuous
 62
     7
370
    25
100
AcDbLine
 10
213.3054324565
 20
148.0777483871
 30
0.0
 11
201.8054324565
 21
136.0777483871
 31
0.0
  0
LINE
  5
35B
330
1F
100
AcDbEntity
  8
0
  6
Continuous
 62
     7
370
    25
100
AcDbLine
 10
213.3054324565
 20
148.0777483871
 30
0.0
 11
236.8054324565
 21
148.0777483871
 31
0.0
  0
ARC
  5
35C
330
1F
100
AcDbEntity
  8
0
  6
Continuous
 62
     7
370
    25
100
AcDbCircle
 10
236.8054324565
 20
146.0777483871
 30
0.0
 40
2.0
100
AcDbArc
 50
0.0
 51
90.0
  0
LINE
  5
35D
330
1F
100
AcDbEntity
  8
0
  6
Continuous
 62
     7
370
    25
100
AcDbLine
 10
238.8054324565
 20
146.0777483871
 30
0.0
 11
238.8054324565
 21
123.8143483871
 31
0.0
  0
LINE
  5
35E
330
1F
100
AcDbEntity
  8
0
  6
Continuous
 62
     7
370
    25
100
AcDbLine
 10
39.8054324565
 20
123.8143483871
 30
0.0
 11
39.8054324565
 21
146.0777483871
 31
0.0
  0
ARC
  5
35F
330
1F
100
AcDbEntity
  8
0
  6
Continuous
 62
     7
370
    25
100
AcDbCircle
 10
41.8054324565
 20
146.0777483871
 30
0.0
 40
2.0
100
AcDbArc
 50
90.0
 51
180.0
  0
LINE
  5
360
330
1F
100
AcDbEntity
  8
0
  6
Continuous
 62
     7
370
    25
100
AcDbLine
 10
41.8054324565
 20
148.0777483871
 30
0.0
 11
65.3054324565
 21
148.0777483871
 31
0.0
  0
ARC
  5
361
330
1F
100
AcDbEntity
  8
0
  6
Continuous
 62
     7
370
    25
100
AcDbCircle
 10
57.5554324565
 20
139.0777483871
 30
0.0
 40
5.249999999999972
100
AcDbArc
 50
270.0
 51
90.0
  0
LINE
  5
362
330
1F
100
AcDbEntity
  8
0
  6
Continuous
 62
     7
370
    25
100
AcDbLine
 10
57.5554324565
 20
144.3277483871
 30
0.0
 11
50.0554324565
 21
144.3277483871
 31
0.0
  0
ARC
  5
363
330
1F
100
AcDbEntity
  8
0
  6
Continuous
 62
     7
370
    25
100
AcDbCircle
 10
50.0554324565
 20
139.0777483871
 30
0.0
 40
5.250000000000199
100
AcDbArc
 50
90.0
 51
270.0
  0
LINE
  5
364
330
1F
100
AcDbEntity
  8
0
  6
Continuous
 62
     7
370
    25
100
AcDbLine
 10
57.5554324565
 20
133.8277483871
 30
0.0
 11
50.0554324565
 21
133.8277483871
 31
0.0
  0
ARC
  5
365
330
1F
100
AcDbEntity
  8
0
  6
Continuous
 62
     7
370
    25
100
AcDbCircle
 10
221.0554324565
 20
139.0777483871
 30
0.0
 40
5.250000000000199
100
AcDbArc
 50
90.0
 51
270.0
  0
LINE
  5
366
330
1F
100
AcDbEntity
  8
0
  6
Continuous
 62
     7
370
    25
100
AcDbLine
 10
221.0554324565
 20
133.8277483871
 30
0.0
 11
228.5554324565
 21
133.8277483871
 31
0.0
  0
ARC
  5
367
330
1F
100
AcDbEntity
  8
0
  6
Continuous
 62
     7
370
    25
100
AcDbCircle
 10
228.5554324565
 20
139.0777483871
 30
0.0
 40
5.250000000000199
100
AcDbArc
 50
270.0
 51
90.0
  0
LINE
  5
368
330
1F
100
AcDbEntity
  8
0
  6
Continuous
 62
     7
370
    25
100
AcDbLine
 10
221.0554324565
 20
144.3277483871
 30
0.0
 11
228.5554324565
 21
144.3277483871
 31
0.0
  0
LINE
  5
369
330
1F
100
AcDbEntity
  8
0
  6
Continuous
 62
     7
370
    25
100
AcDbLine
 10
205.8054324565
 20
111.0777483871
 30
0.0
 11
203.8054324565
 21
111.0777483871
 31
0.0
  0
LINE
  5
36A
330
1F
100
AcDbEntity
  8
0
  6
Continuous
 62
     7
370
    25
100
AcDbLine
 10
203.8054324565
 20
111.0777483871
 30
0.0
 11
203.8054324565
 21
113.0777483871
 31
0.0
  0
LINE
  5
36B
330
1F
100
AcDbEntity
  8
0
  6
Continuous
 62
     7
370
    25
100
AcDbLine
 10
220.3054324565
 20
113.0777483871
 30
0.0
 11
220.3054324565
 21
111.0777483871
 31
0.0
  0
LINE
  5
36C
330
1F
100
AcDbEntity
  8
0
  6
Continuous
 62
     7
370
    25
100
AcDbLine
 10
220.3054324565
 20
111.0777483871
 30
0.0
 11
205.8054324565
 21
111.0777483871
 31
0.0
  0
LINE
  5
36D
330
1F
100
AcDbEntity
  8
0
  6
Continuous
 62
     7
370
    25
100
AcDbLine
 10
220.3054324565
 20
113.0777483871
 30
0.0
 11
218.7220991231
 21
113.0777483871
 31
0.0
  0
LINE
  5
36E
330
1F
100
AcDbEntity
  8
0
  6
Continuous
 62
     7
370
    25
100
AcDbLine
 10
237.8318343796
 20
111.0777483871
 30
0.0
 11
237.8318343796
 21
113.0777483871
 31
0.0
  0
LINE
  5
36F
330
1F
100
AcDbEntity
  8
0
  6
Continuous
 62
     7
370
    25
100
AcDbLine
 10
237.8318343796
 20
111.0777483871
 30
0.0
 11
220.3054324565
 21
111.0777483871
 31
0.0
  0
LINE
  5
370
330
1F
100
AcDbEntity
  8
0
  6
Continuous
 62
     7
370
    25
100
AcDbLine
 10
221.1367948027
 20
113.0777483871
 30
0.0
 11
220.3054324565
 21
113.0777483871
 31
0.0
  0
LINE
  5
371
330
1F
100
AcDbEntity
  8
0
  6
Continuous
 62
     7
370
    25
100
AcDbLine
 10
58.3054324565
 20
113.0777483871
 30
0.0
 11
58.3054324565
 21
111.0777483871
 31
0.0
  0
LINE
  5
372
330
1F
100
AcDbEntity
  8
0
  6
Continuous
 62
     7
370
    25
100
AcDbLine
 10
40.7790305334
 20
111.0777483871
 30
0.0
 11
40.7790305334
 21
113.0777483871
 31
0.0
  0
LINE
  5
373
330
1F
100
AcDbEntity
  8
0
  6
Continuous
 62
     7
370
    25
100
AcDbLine
 10
58.3054324565
 20
111.0777483871
 30
0.0
 11
40.7790305334
 21
111.0777483871
 31
0.0
  0
LINE
  5
374
330
1F
100
AcDbEntity
  8
0
  6
Continuous
 62
     7
370
    25
100
AcDbLine
 10
58.3054324565
 20
113.0777483871
 30
0.0
 11
57.4740701102
 21
113.0777483871
 31
0.0
  0
LINE
  5
375
330
1F
100
AcDbEntity
  8
0
  6
Continuous
 62
     7
370
    25
100
AcDbLine
 10
72.8054324565
 20
111.0777483871
 30
0.0
 11
58.3054324565
 21
111.0777483871
 31
0.0
  0
LINE
  5
376
330
1F
100
AcDbEntity
  8
0
  6
Continuous
 62
     7
370
    25
100
AcDbLine
 10
59.8887657898
 20
113.0777483871
 30
0.0
 11
58.3054324565
 21
113.0777483871
 31
0.0
  0
LINE
  5
377
330
1F
100
AcDbEntity
  8
0
  6
Continuous
 62
     7
370
    25
100
AcDbLine
 10
74.8054324565
 20
113.0777483871
 30
0.0
 11
74.8054324565
 21
111.0777483871
 31
0.0
  0
LINE
  5
378
330
1F
100
AcDbEntity
  8
0
  6
Continuous
 62
     7
370
    25
100
AcDbLine
 10
74.8054324565
 20
111.0777483871
 30
0.0
 11
72.8054324565
 21
111.0777483871
 31
0.0
  0
LINE
  5
379
330
1F
100
AcDbEntity
  8
0
  6
Continuous
 62
     7
370
    25
100
AcDbLine
 10
203.8054324565
 20
111.0777483871
 30
0.0
 11
199.8054324565
 21
111.0777483871
 31
0.0
  0
LINE
  5
37A
330
1F
100
AcDbEntity
  8
0
  6
Continuous
 62
     7
370
    25
100
AcDbLine
 10
78.8054324565
 20
111.0777483871
 30
0.0
 11
74.8054324565
 21
111.0777483871
 31
0.0
  0
LINE
  5
37B
330
1F
100
AcDbEntity
  8
0
  6
Continuous
 62
     7
370
    25
100
AcDbLine
 10
193.4224834866
 20
111.0777483871
 30
0.0
 11
191.4224834866
 21
111.0777483871
 31
0.0
  0
LINE
  5
37C
330
1F
100
AcDbEntity
  8
0
  6
Continuous
 62
     7
370
    25
100
AcDbLine
 10
199.8054324565
 20
111.0777483871
 30
0.0
 11
193.4224834866
 21
111.0777483871
 31
0.0
  0
LINE
  5
37D
330
1F
100
AcDbEntity
  8
0
  6
Continuous
 62
     7
370
    25
100
AcDbLine
 10
85.1883814263
 20
111.0777483871
 30
0.0
 11
78.8054324565
 21
111.0777483871
 31
0.0
  0
LINE
  5
37E
330
1F
100
AcDbEntity
  8
0
  6
Continuous
 62
     7
370
    25
100
AcDbLine
 10
87.1883814263
 20
111.0777483871
 30
0.0
 11
85.1883814263
 21
111.0777483871
 31
0.0
  0
LINE
  5
37F
330
1F
100
AcDbEntity
  8
0
  6
Continuous
 62
     7
370
    25
100
AcDbLine
 10
191.4224834866
 20
111.0777483871
 30
0.0
 11
87.1883814263
 21
111.0777483871
 31
0.0
  0
SPLINE
  5
380
330
1F
100
AcDbEntity
  8
0
  6
Continuous
 62
     7
370
    25
100
AcDbSpline
210
0.0
220
0.0
230
1.0
 70
     8
 71
     3
 72
    12
 73
     8
 74
     0
 42
0.000000001
 43
0.00000001
 40
0.0
 40
0.0
 40
0.0
 40
0.0
 40
0.2335879420900815
 40
0.4537901450808389
 40
0.6739877272615066
 40
0.894185218480903
 40
1.0
 40
1.0
 40
1.0
 40
1.0
 10
40.77903053340322
 20
113.077748387097
 30
0.0
 10
40.70314864230916
 20
113.0419555430432
 30
0.0
 10
40.555733266068
 20
112.9724209611179
 30
0.0
 10
40.33696691413579
 20
112.4482734047977
 30
0.0
 10
40.12261617251202
 20
111.7094124966707
 30
0.0
 10
39.94500710633007
 20
110.957312579014
 30
0.0
 10
39.83963378993958
 20
110.4921330896641
 30
0.0
 10
39.80543245648015
 20
110.341148387097
 30
0.0
  0
SPLINE
  5
381
330
1F
100
AcDbEntity
  8
0
  6
Continuous
 62
     7
370
    25
100
AcDbSpline
210
0.0
220
0.0
230
1.0
 70
     8
 71
     3
 72
    11
 73
     7
 74
     0
 42
0.000000001
 43
0.00000001
 40
0.0
 40
0.0
 40
0.0
 40
0.0
 40
0.2472454926703005
 40
0.5282132489579687
 40
0.8093312418985484
 40
1.0
 40
1.0
 40
1.0
 40
1.0
 10
40.77903053340319
 20
111.0777483870968
 30
0.0
 10
40.69883484632188
 20
111.0668512978641
 30
0.0
 10
40.5275054361549
 20
111.0435708455264
 30
0.0
 10
40.26462386505091
 20
110.8531343655984
 30
0.0
 10
40.01991123239355
 20
110.5963333979989
 30
0.0
 10
39.86716400113195
 20
110.4145960502884
 30
0.0
 10
39.80543245648015
 20
110.341148387097
 30
0.0
  0
SPLINE
  5
382
330
1F
100
AcDbEntity
  8
0
  6
Continuous
 62
     7
370
    25
100
AcDbSpline
210
0.0
220
0.0
230
1.0
 70
     8
 71
     3
 72
    12
 73
     8
 74
     0
 42
0.000000001
 43
0.00000001
 40
0.0
 40
0.0
 40
0.0
 40
0.0
 40
0.2335879420900659
 40
0.4537901450808092
 40
0.6739877272614917
 40
0.894185218480851
 40
1.0
 40
1.0
 40
1.0
 40
1.0
 10
238.8054324564802
 20
110.341148387097
 30
0.0
 10
238.7295505653861
 20
110.6760807766044
 30
0.0
 10
238.582135189145
 20
111.3267522807366
 30
0.0
 10
238.3633688372127
 20
112.1683198836578
 30
0.0
 10
238.149018095589
 20
112.7728544641811
 30
0.0
 10
237.9714090294069
 20
113.0468938313313
 30
0.0
 10
237.8660357130165
 20
113.0701877953159
 30
0.0
 10
237.8318343795571
 20
113.077748387097
 30
0.0
  0
SPLINE
  5
383
330
1F
100
AcDbEntity
  8
0
  6
Continuous
 62
     7
370
    25
100
AcDbSpline
210
0.0
220
0.0
230
1.0
 70
     8
 71
     3
 72
    11
 73
     7
 74
     0
 42
0.000000001
 43
0.00000001
 40
0.0
 40
0.0
 40
0.0
 40
0.0
 40
0.2472454926704253
 40
0.5282132489579143
 40
0.809331241898613
 40
0.9999999999999999
 40
0.9999999999999999
 40
0.9999999999999999
 40
0.9999999999999999
 10
238.8054324564802
 20
110.3411483870968
 30
0.0
 10
238.7252367693988
 20
110.43654421437
 30
0.0
 10
238.553907359232
 20
110.6403470797599
 30
0.0
 10
238.2910257881276
 20
110.9013155508586
 30
0.0
 10
238.0463131554706
 20
111.0550861572757
 30
0.0
 10
237.8935659242089
 20
111.0712257162819
 30
0.0
 10
237.8318343795571
 20
111.077748387097
 30
0.0
  0
LINE
  5
384
330
1F
100
AcDbEntity
  8
0
  6
Continuous
 62
     7
370
    25
100
AcDbLine
 10
213.3054324565
 20
86.0777483871
 30
0.0
 11
201.8054324565
 21
98.0777483871
 31
0.0
  0
LINE
  5
385
330
1F
100
AcDbEntity
  8
0
  6
Continuous
 62
     7
370
    25
100
AcDbLine
 10
76.8054324565
 20
98.0777483871
 30
0.0
 11
201.8054324565
 21
98.0777483871
 31
0.0
  0
LINE
  5
386
330
1F
100
AcDbEntity
  8
0
  6
Continuous
 62
     7
370
    25
100
AcDbLine
 10
65.3054324565
 20
86.0777483871
 30
0.0
 11
76.8054324565
 21
98.0777483871
 31
0.0
  0
LINE
  5
387
330
1F
100
AcDbEntity
  8
0
  6
Continuous
 62
     7
370
    25
100
AcDbLine
 10
65.3054324565
 20
86.0777483871
 30
0.0
 11
41.8054324565
 21
86.0777483871
 31
0.0
  0
ARC
  5
388
330
1F
100
AcDbEntity
  8
0
  6
Continuous
 62
     7
370
    25
100
AcDbCircle
 10
41.8054324565
 20
88.0777483871
 30
0.0
 40
2.0
100
AcDbArc
 50
180.0
 51
270.0
  0
LINE
  5
389
330
1F
100
AcDbEntity
  8
0
  6
Continuous
 62
     7
370
    25
100
AcDbLine
 10
39.8054324565
 20
88.0777483871
 30
0.0
 11
39.8054324565
 21
110.3411483871
 31
0.0
  0
LINE
  5
38A
330
1F
100
AcDbEntity
  8
0
  6
Continuous
 62
     7
370
    25
100
AcDbLine
 10
238.8054324565
 20
110.3411483871
 30
0.0
 11
238.8054324565
 21
88.0777483871
 31
0.0
  0
ARC
  5
38B
330
1F
100
AcDbEntity
  8
0
  6
Continuous
 62
     7
370
    25
100
AcDbCircle
 10
236.8054324565
 20
88.0777483871
 30
0.0
 40
2.0
100
AcDbArc
 50
270.0
 51
0.0
  0
LINE
  5
38C
330
1F
100
AcDbEntity
  8
0
  6
Continuous
 62
     7
370
    25
100
AcDbLine
 10
236.8054324565
 20
86.0777483871
 30
0.0
 11
213.3054324565
 21
86.0777483871
 31
0.0
  0
ARC
  5
38D
330
1F
100
AcDbEntity
  8
0
  6
Continuous
 62
     7
370
    25
100
AcDbCircle
 10
221.0554324565
 20
95.0777483871
 30
0.0
 40
5.249999999999986
100
AcDbArc
 50
90.0
 51
270.0
  0
LINE
  5
38E
330
1F
100
AcDbEntity
  8
0
  6
Continuous
 62
     7
370
    25
100
AcDbLine
 10
221.0554324565
 20
89.8277483871
 30
0.0
 11
228.5554324565
 21
89.8277483871
 31
0.0
  0
ARC
  5
38F
330
1F
100
AcDbEntity
  8
0
  6
Continuous
 62
     7
370
    25
100
AcDbCircle
 10
228.5554324565
 20
95.0777483871
 30
0.0
 40
5.250000000000199
100
AcDbArc
 50
270.0
 51
90.0
  0
LINE
  5
390
330
1F
100
AcDbEntity
  8
0
  6
Continuous
 62
     7
370
    25
100
AcDbLine
 10
221.0554324565
 20
100.3277483871
 30
0.0
 11
228.5554324565
 21
100.3277483871
 31
0.0
  0
ARC
  5
391
330
1F
100
AcDbEntity
  8
0
  6
Continuous
 62
     7
370
    25
100
AcDbCircle
 10
57.5554324565
 20
95.0777483871
 30
0.0
 40
5.250000000000199
100
AcDbArc
 50
270.0
 51
90.0
  0
LINE
  5
392
330
1F
100
AcDbEntity
  8
0
  6
Continuous
 62
     7
370
    25
100
AcDbLine
 10
57.5554324565
 20
100.3277483871
 30
0.0
 11
50.0554324565
 21
100.3277483871
 31
0.0
  0
ARC
  5
393
330
1F
100
AcDbEntity
  8
0
  6
Continuous
 62
     7
370
    25
100
AcDbCircle
 10
50.0554324565
 20
95.0777483871
 30
0.0
 40
5.250000000000199
100
AcDbArc
 50
90.0
 51
270.0
  0
LINE
  5
394
330
1F
100
AcDbEntity
  8
0
  6
Continuous
 62
     7
370
    25
100
AcDbLine
 10
57.5554324565
 20
89.8277483871
 30
0.0
 11
50.0554324565
 21
89.8277483871
 31
0.0
  0
LINE
  5
395
330
1F
100
AcDbEntity
  8
0
  6
Continuous
 62
     8
370
    18
100
AcDbLine
 10
65.8054324565
 20
118.0777483871
 30
0.0
 11
65.8054324565
 21
116.0777483871
 31
0.0
  0
LINE
  5
396
330
1F
100
AcDbEntity
  8
0
  6
Continuous
 62
     8
370
    18
100
AcDbLine
 10
212.8054324565
 20
116.0777483871
 30
0.0
 11
212.8054324565
 21
118.0777483871
 31
0.0
  0
LINE
  5
397
330
1F
100
AcDbEntity
  8
0
  6
Continuous
 62
     8
370
    18
100
AcDbLine
 10
80.8054324565
 20
116.0777483871
 30
0.0
 11
80.8054324565
 21
113.0777483871
 31
0.0
  0
LINE
  5
398
330
1F
100
AcDbEntity
  8
0
  6
Continuous
 62
     8
370
    18
100
AcDbLine
 10
197.8054324565
 20
113.0777483871
 30
0.0
 11
197.8054324565
 21
116.0777483871
 31
0.0
  0
LINE
  5
399
330
1F
100
AcDbEntity
  8
0
  6
Continuous
 62
     8
370
    18
100
AcDbLine
 10
85.3327133875
 20
113.0777483871
 30
0.0
 11
85.3327133875
 21
116.0777483871
 31
0.0
  0
LINE
  5
39A
330
1F
100
AcDbEntity
  8
0
  6
Continuous
 62
     8
370
    18
100
AcDbLine
 10
193.2781515255
 20
116.0777483871
 30
0.0
 11
193.2781515255
 21
113.0777483871
 31
0.0
  0
LINE
  5
39B
330
1F
100
AcDbEntity
  8
0
  6
Continuous
 62
     8
370
    18
100
AcDbLine
 10
80.8054324565
 20
121.0777483871
 30
0.0
 11
80.8054324565
 21
118.0777483871
 31
0.0
  0
LINE
  5
39C
330
1F
100
AcDbEntity
  8
0
  6
Continuous
 62
     8
370
    18
100
AcDbLine
 10
197.8054324565
 20
118.0777483871
 30
0.0
 11
197.8054324565
 21
121.0777483871
 31
0.0
  0
LINE
  5
39D
330
1F
100
AcDbEntity
  8
0
  6
Continuous
 62
     8
370
    18
100
AcDbLine
 10
85.3327133875
 20
118.0777483871
 30
0.0
 11
85.3327133875
 21
121.0777483871
 31
0.0
  0
LINE
  5
39E
330
1F
100
AcDbEntity
  8
0
  6
Continuous
 62
     8
370
    18
100
AcDbLine
 10
193.2781515255
 20
121.0777483871
 30
0.0
 11
193.2781515255
 21
118.0777483871
 31
0.0
  0
LINE
  5
39F
330
1F
100
AcDbEntity
  8
0
  6
Continuous
 62
     8
370
    18
100
AcDbLine
 10
72.8054324565
 20
121.0777483871
 30
0.0
 11
72.8054324565
 21
123.0777483871
 31
0.0
  0
LINE
  5
3A0
330
1F
100
AcDbEntity
  8
0
  6
Continuous
 62
     8
370
    18
100
AcDbLine
 10
205.8054324565
 20
123.0777483871
 30
0.0
 11
205.8054324565
 21
121.0777483871
 31
0.0
  0
LINE
  5
3A1
330
1F
100
AcDbEntity
  8
0
  6
Continuous
 62
     8
370
    18
100
AcDbLine
 10
78.8054324565
 20
123.0777483871
 30
0.0
 11
78.8054324565
 21
121.0777483871
 31
0.0
  0
LINE
  5
3A2
330
1F
100
AcDbEntity
  8
0
  6
Continuous
 62
     8
370
    18
100
AcDbLine
 10
199.8054324565
 20
121.0777483871
 30
0.0
 11
199.8054324565
 21
123.0777483871
 31
0.0
  0
LINE
  5
3A3
330
1F
100
AcDbEntity
  8
0
  6
Continuous
 62
     8
370
    18
100
AcDbLine
 10
85.1883814263
 20
121.0777483871
 30
0.0
 11
85.1883814263
 21
123.0777483871
 31
0.0
  0
LINE
  5
3A4
330
1F
100
AcDbEntity
  8
0
  6
Continuous
 62
     8
370
    18
100
AcDbLine
 10
193.4224834866
 20
123.0777483871
 30
0.0
 11
193.4224834866
 21
121.0777483871
 31
0.0
  0
LINE
  5
3A5
330
1F
100
AcDbEntity
  8
0
  6
Continuous
 62
     8
370
    18
100
AcDbLine
 10
238.8054324565
 20
123.8143483871
 30
0.0
 11
218.8054324565
 21
123.8143483871
 31
0.0
  0
LINE
  5
3A6
330
1F
100
AcDbEntity
  8
0
  6
Continuous
 62
     8
370
    18
100
AcDbLine
 10
205.8054324565
 20
123.8143483871
 30
0.0
 11
72.8054324565
 21
123.8143483871
 31
0.0
  0
LINE
  5
3A7
330
1F
100
AcDbEntity
  8
0
  6
Continuous
 62
     8
370
    18
100
AcDbLine
 10
59.8054324565
 20
123.8143483871
 30
0.0
 11
39.8054324565
 21
123.8143483871
 31
0.0
  0
LINE
  5
3A8
330
1F
100
AcDbEntity
  8
0
  6
Continuous
 62
     8
370
    18
100
AcDbLine
 10
205.8054324565
 20
113.0777483871
 30
0.0
 11
205.8054324565
 21
111.0777483871
 31
0.0
  0
LINE
  5
3A9
330
1F
100
AcDbEntity
  8
0
  6
Continuous
 62
     8
370
    18
100
AcDbLine
 10
72.8054324565
 20
111.0777483871
 30
0.0
 11
72.8054324565
 21
113.0777483871
 31
0.0
  0
LINE
  5
3AA
330
1F
100
AcDbEntity
  8
0
  6
Continuous
 62
     8
370
    18
100
AcDbLine
 10
199.8054324565
 20
111.0777483871
 30
0.0
 11
199.8054324565
 21
113.0777483871
 31
0.0
  0
LINE
  5
3AB
330
1F
100
AcDbEntity
  8
0
  6
Continuous
 62
     8
370
    18
100
AcDbLine
 10
78.8054324565
 20
113.0777483871
 30
0.0
 11
78.8054324565
 21
111.0777483871
 31
0.0
  0
LINE
  5
3AC
330
1F
100
AcDbEntity
  8
0
  6
Continuous
 62
     8
370
    18
100
AcDbLine
 10
193.4224834866
 20
113.0777483871
 30
0.0
 11
193.4224834866
 21
111.0777483871
 31
0.0
  0
LINE
  5
3AD
330
1F
100
AcDbEntity
  8
0
  6
Continuous
 62
     8
370
    18
100
AcDbLine
 10
85.1883814263
 20
111.0777483871
 30
0.0
 11
85.1883814263
 21
113.0777483871
 31
0.0
  0
LINE
  5
3AE
330
1F
100
AcDbEntity
  8
0
  6
Continuous
 62
     8
370
    18
100
AcDbLine
 10
39.8054324565
 20
110.3411483871
 30
0.0
 11
59.8054324565
 21
110.3411483871
 31
0.0
  0
LINE
  5
3AF
330
1F
100
AcDbEntity
  8
0
  6
Continuous
 62
     8
370
    18
100
AcDbLine
 10
72.8054324565
 20
110.3411483871
 30
0.0
 11
205.8054324565
 21
110.3411483871
 31
0.0
  0
LINE
  5
3B0
330
1F
100
AcDbEntity
  8
0
  6
Continuous
 62
     8
370
    18
100
AcDbLine
 10
218.8054324565
 20
110.3411483871
 30
0.0
 11
238.8054324565
 21
110.3411483871
 31
0.0
  0
DIMENSION
  5
3B1
330
1F
100
AcDbEntity
  8
0
  6
Continuous
 62
     7
370
    18
100
AcDbDimension
  2
_D_4
 10
258.157032754
 20
148.0777483871
 30
0.0
 11
258.157032754
 21
117.0777483871
 31
0.0
 70
   160
  1
<>
 71
     2
 42
-1.0
  3
SLDDIMSTYLE1
100
AcDbAlignedDimension
 13
236.8054324565
 23
86.0777483871
 33
0.0
 14
236.8054324565
 24
148.0777483871
 34
0.0
 50
90.0
100
AcDbRotatedDimension
  0
DIMENSION
  5
3BB
330
1F
100
AcDbEntity
  8
0
  6
Continuous
 62
     7
370
    18
100
AcDbDimension
  2
_D_5
 10
201.8054324565
 20
85.667228778
 30
0.0
 11
139.3054324565
 21
85.667228778
 31
0.0
 70
   160
  1
<>
 71
     2
 42
-1.0
  3
SLDDIMSTYLE1
100
AcDbAlignedDimension
 13
76.8054324565
 23
98.0777483871
 33
0.0
 14
201.8054324565
 24
98.0777483871
 34
0.0
 50
0.0
100
AcDbRotatedDimension
  0
DIMENSION
  5
3C5
330
1F
100
AcDbEntity
  8
0
  6
Continuous
 62
     7
370
    18
100
AcDbDimension
  2
_D_6
 10
65.3054324565
 20
69.5534777166
 30
0.0
 11
139.3054324565
 21
69.5534777166
 31
0.0
 70
   160
  1
<>
 71
     2
 42
-1.0
  3
SLDDIMSTYLE1
100
AcDbAlignedDimension
 13
213.3054324565
 23
86.0777483871
 33
0.0
 14
65.3054324565
 24
86.0777483871
 34
0.0
100
AcDbRotatedDimension
  0
DIMENSION
  5
3CF
330
1F
100
AcDbEntity
  8
0
  6
Continuous
 62
     7
370
    18
100
AcDbDimension
  2
_D_7
 10
39.8054324565
 20
158.0777483871
 30
0.0
 11
139.3054324565
 21
158.0777483871
 31
0.0
 70
   160
  1
<>
 71
     2
 42
-1.0
  3
SLDDIMSTYLE1
100
AcDbAlignedDimension
 13
238.8054324565
 23
146.0777483871
 33
0.0
 14
39.8054324565
 24
146.0777483871
 34
0.0
100
AcDbRotatedDimension
  0
INSERT
  5
3EC
330
1F
100
AcDbEntity
  8
0
  6
Continuous
 62
     7
370
     0
100
AcDbBlockReference
  2
SW_CENTERMARKSYMBOL_0
 10
228.5554324565
 20
95.0777483871
 30
0.0
  0
INSERT
  5
400
330
1F
100
AcDbEntity
  8
0
  6
Continuous
 62
     7
370
     0
100
AcDbBlockReference
  2
SW_CENTERMARKSYMBOL_1
 10
228.5554324565
 20
139.0777483871
 30
0.0
  0
INSERT
  5
414
330
1F
100
AcDbEntity
  8
0
  6
Continuous
 62
     7
370
     0
100
AcDbBlockReference
  2
SW_CENTERMARKSYMBOL_2
 10
57.5554324565
 20
139.0777483871
 30
0.0
  0
INSERT
  5
428
330
1F
100
AcDbEntity
  8
0
  6
Continuous
 62
     7
370
     0
100
AcDbBlockReference
  2
SW_CENTERMARKSYMBOL_3
 10
57.5554324565
 20
95.0777483871
 30
0.0
  0
LINE
  5
429
330
1F
100
AcDbEntity
  8
0
  6
Continuous
 62
     7
370
    25
100
AcDbLine
 10
375.6783400814
 20
104.5052757327
 30
0.0
 11
375.6783400814
 21
104.2234108321
 31
0.0
  0
LINE
  5
42A
330
1F
100
AcDbEntity
  8
0
  6
Continuous
 62
     7
370
    25
100
AcDbLine
 10
376.8482348558
 20
102.1968740637
 30
0.0
 11
377.0923237942
 21
102.0559187079
 31
0.0
  0
LINE
  5
42B
330
1F
100
AcDbEntity
  8
0
  6
Continuous
 62
     7
370
    25
100
AcDbLine
 10
377.6516285869
 20
106.3209532379
 30
0.0
 11
376.0926349111
 21
105.4209653456
 31
0.0
  0
LINE
  5
42C
330
1F
100
AcDbEntity
  8
0
  6
Continuous
 62
     7
370
    25
100
AcDbLine
 10
378.0924723764
 20
101.9567698961
 30
0.0
 11
379.6514660522
 21
102.8567577884
 31
0.0
  0
LINE
  5
42D
330
1F
100
AcDbEntity
  8
0
  6
Continuous
 62
     7
370
    25
100
AcDbLine
 10
324.0595450547
 20
134.3041718142
 30
0.0
 11
324.0595450547
 21
134.0223069136
 31
0.0
  0
LINE
  5
42E
330
1F
100
AcDbEntity
  8
0
  6
Continuous
 62
     7
370
    25
100
AcDbLine
 10
325.2294398292
 20
131.9957701453
 30
0.0
 11
325.4735287676
 21
131.8548147895
 31
0.0
  0
LINE
  5
42F
330
1F
100
AcDbEntity
  8
0
  6
Continuous
 62
     7
370
    25
100
AcDbLine
 10
326.0328335603
 20
136.1198493194
 30
0.0
 11
324.4738398845
 21
135.2198614272
 31
0.0
  0
LINE
  5
430
330
1F
100
AcDbEntity
  8
0
  6
Continuous
 62
     7
370
    25
100
AcDbLine
 10
326.4736773497
 20
131.7556659776
 30
0.0
 11
328.0326710256
 21
132.6556538699
 31
0.0
  0
LINE
  5
431
330
1F
100
AcDbEntity
  8
0
  6
Continuous
 62
     7
370
    25
100
AcDbLine
 10
375.8602771634
 20
117.4953546535
 30
0.0
 11
374.7996169916
 21
116.8830485696
 31
0.0
  0
LINE
  5
432
330
1F
100
AcDbEntity
  8
0
  6
Continuous
 62
     7
370
    25
100
AcDbLine
 10
394.1489614724
 20
92.1721000503
 30
0.0
 11
394.4605925421
 21
91.9921992631
 31
0.0
  0
LINE
  5
433
330
1F
100
AcDbEntity
  8
0
  6
Continuous
 62
     7
370
    25
100
AcDbLine
 10
403.4810458455
 20
96.9127614611
 30
0.0
 11
403.4810458455
 21
97.729302273
 31
0.0
  0
LINE
  5
434
330
1F
100
AcDbEntity
  8
0
  6
Continuous
 62
     7
370
    25
100
AcDbLine
 10
379.3536694812
 20
117.7841265647
 30
0.0
 11
378.6465627001
 21
117.3759225088
 31
0.0
  0
LINE
  5
435
330
1F
100
AcDbEntity
  8
0
  6
Continuous
 62
     7
370
    25
100
AcDbLine
 10
374.9756358874
 20
116.0246722992
 30
0.0
 11
374.2685291062
 21
115.6164682432
 31
0.0
  0
LINE
  5
436
330
1F
100
AcDbEntity
  8
0
  6
Continuous
 62
     7
370
    25
100
AcDbLine
 10
312.0320380254
 20
125.6912801029
 30
0.0
 11
312.0320380254
 21
124.874739291
 31
0.0
  0
LWPOLYLINE
  5
437
330
1F
100
AcDbEntity
  8
0
  6
Continuous
 62
     7
370
    25
100
AcDbPolyline
 90
       29
 70
   128
 43
0.0
 10
375.6783400814
 20
104.2234108321
 10
375.7076765539
 20
104.5071390595
 10
375.7942149182
 20
104.7427687986
 10
375.9336157794
 20
104.9184845904
 10
376.1188889963
 20
105.0254753114
 10
376.340744196
 20
105.058376
 10
376.5880566325
 20
105.0155368784
 10
376.8484250275
 20
104.899106079
 10
377.1087934226
 20
104.7149219283
 10
377.356105859
 20
104.4722201886
 10
377.5779610588
 20
104.1831709386
 10
377.7632342756
 20
103.8622683147
 10
377.9026351368
 20
103.5256037145
 10
377.9891735012
 20
103.1900589066
 10
378.0185099737
 20
102.872459509
 10
377.9891735012
 20
102.5887312817
 10
377.9026351368
 20
102.3531015426
 10
377.7632342756
 20
102.1773857507
 10
377.5779610588
 20
102.0703950298
 10
377.356105859
 20
102.0374943411
 10
377.1087934226
 20
102.0803334627
 10
376.8484250275
 20
102.1967642621
 10
376.5880566325
 20
102.3809484128
 10
376.340744196
 20
102.6236501525
 10
376.1188889963
 20
102.9126994025
 10
375.9336157794
 20
103.2336020264
 10
375.7942149182
 20
103.5702666267
 10
375.7076765539
 20
103.9058114345
 10
375.6783400814
 20
104.2234108321
  0
LWPOLYLINE
  5
438
330
1F
100
AcDbEntity
  8
0
  6
Continuous
 62
     7
370
    25
100
AcDbPolyline
 90
       25
 70
   128
 43
0.0
 10
375.6783400814
 20
104.5052757327
 10
375.7072891161
 20
104.8173007247
 10
375.7929510433
 20
105.0831275329
 10
375.9318188537
 20
105.2918731765
 10
376.1182072827
 20
105.4349915842
 10
376.3444855663
 20
105.5066234718
 10
376.6013898449
 20
105.5038362212
 10
376.8784024271
 20
105.4267439429
 10
377.1641823852
 20
105.2785028038
 10
377.4470298543
 20
105.0651818135
 10
377.7153650256
 20
104.7955143584
 10
377.9582022259
 20
104.4805406559
 10
378.1655996714
 20
104.1331557664
 10
378.3290664865
 20
103.7675816679
 10
378.4419103205
 20
103.3987850071
 10
378.4995113337
 20
103.0418643626
 10
378.4995113337
 20
102.7114321075
 10
378.4419103205
 20
102.4210161772
 10
378.3290664865
 20
102.1825062339
 10
378.1655996714
 20
102.0056669028
 10
377.9582022259
 20
101.8977380069
 10
377.7153650256
 20
101.8631381678
 10
377.4470298543
 20
101.9032839071
 10
377.1641823852
 20
102.0165316534
 10
377.0923237942
 20
102.0559187079
  0
LWPOLYLINE
  5
439
330
1F
100
AcDbEntity
  8
0
  6
Continuous
 62
     7
370
    25
100
AcDbPolyline
 90
       29
 70
   128
 43
0.0
 10
324.0595450547
 20
134.0223069136
 10
324.0888815273
 20
134.306035141
 10
324.1754198916
 20
134.5416648801
 10
324.3148207528
 20
134.7173806719
 10
324.5000939697
 20
134.8243713929
 10
324.7219491694
 20
134.8572720815
 10
324.9692616059
 20
134.81443296
 10
325.2296300009
 20
134.6980021606
 10
325.4899983959
 20
134.5138180098
 10
325.7373108324
 20
134.2711162701
 10
325.9591660321
 20
133.9820670202
 10
326.144439249
 20
133.6611643963
 10
326.2838401102
 20
133.324499796
 10
326.3703784745
 20
132.9889549882
 10
326.3997149471
 20
132.6713555906
 10
326.3703784745
 20
132.3876273632
 10
326.2838401102
 20
132.1519976241
 10
326.144439249
 20
131.9762818323
 10
325.9591660321
 20
131.8692911113
 10
325.7373108324
 20
131.8363904226
 10
325.4899983959
 20
131.8792295442
 10
325.2296300009
 20
131.9956603436
 10
324.9692616059
 20
132.1798444944
 10
324.7219491694
 20
132.422546234
 10
324.5000939697
 20
132.711595484
 10
324.3148207528
 20
133.0324981079
 10
324.1754198916
 20
133.3691627082
 10
324.0888815273
 20
133.704707516
 10
324.0595450547
 20
134.0223069136
  0
LWPOLYLINE
  5
43A
330
1F
100
AcDbEntity
  8
0
  6
Continuous
 62
     7
370
    25
100
AcDbPolyline
 90
       25
 70
   128
 43
0.0
 10
324.0595450547
 20
134.3041718142
 10
324.0884940894
 20
134.6161968063
 10
324.1741560167
 20
134.8820236144
 10
324.3130238271
 20
135.090769258
 10
324.4994122561
 20
135.2338876658
 10
324.7256905397
 20
135.3055195533
 10
324.9825948183
 20
135.3027323028
 10
325.2596074004
 20
135.2256400244
 10
325.5453873586
 20
135.0773988853
 10
325.8282348277
 20
134.864077895
 10
326.096569999
 20
134.59441044
 10
326.3394071992
 20
134.2794367375
 10
326.5468046448
 20
133.9320518479
 10
326.7102714599
 20
133.5664777494
 10
326.8231152939
 20
133.1976810886
 10
326.880716307
 20
132.8407604441
 10
326.880716307
 20
132.510328189
 10
326.8231152939
 20
132.2199122587
 10
326.7102714599
 20
131.9814023154
 10
326.5468046448
 20
131.8045629844
 10
326.3394071992
 20
131.6966340884
 10
326.096569999
 20
131.6620342494
 10
325.8282348277
 20
131.7021799886
 10
325.5453873586
 20
131.8154277349
 10
325.4735287676
 20
131.8548147895
  0
SPLINE
  5
43B
330
1F
100
AcDbEntity
  8
0
  6
Continuous
 62
     7
370
    25
100
AcDbSpline
210
0.0
220
0.0
230
1.0
 70
     8
 71
     3
 72
     9
 73
     5
 74
     0
 42
0.000000001
 43
0.00000001
 40
0.0
 40
0.0
 40
0.0
 40
0.0
 40
0.4954579634770042
 40
0.9999999999999999
 40
0.9999999999999999
 40
0.9999999999999999
 40
0.9999999999999999
 10
381.2393613566695
 20
109.1470641319827
 30
0.0
 10
381.4833410210268
 20
108.9480409011393
 30
0.0
 10
381.9757736436554
 20
108.5463454082528
 30
0.0
 10
382.3864593978624
 20
108.0743121135072
 30
0.0
 10
382.593667624661
 20
107.8361514736696
 30
0.0
  0
SPLINE
  5
43C
330
1F
100
AcDbEntity
  8
0
  6
Continuous
 62
     7
370
    25
100
AcDbSpline
210
0.0
220
0.0
230
1.0
 70
     8
 71
     3
 72
    10
 73
     6
 74
     0
 42
0.000000001
 43
0.00000001
 40
0.0
 40
0.0
 40
0.0
 40
0.0
 40
0.0700769119681885
 40
0.530777664039407
 40
0.9999999999999999
 40
0.9999999999999999
 40
0.9999999999999999
 40
0.9999999999999999
 10
382.593667624661
 20
107.8361514736696
 30
0.0
 10
382.6206536898306
 20
107.8021348690004
 30
0.0
 10
382.8250519749452
 20
107.5444857595039
 30
0.0
 10
383.1691110288147
 20
107.0348362868535
 30
0.0
 10
383.4139281256273
 20
106.5386299748566
 30
0.0
 10
383.5374583955259
 20
106.2882532632445
 30
0.0
  0
LINE
  5
43D
330
1F
100
AcDbEntity
  8
0
  6
Continuous
 62
     7
370
    25
100
AcDbLine
 10
383.5374583955
 20
106.2882532632
 30
0.0
 11
381.154902107
 21
104.9128327945
 31
0.0
  0
SPLINE
  5
43E
330
1F
100
AcDbEntity
  8
0
  6
Continuous
 62
     7
370
    25
100
AcDbSpline
210
0.0
220
0.0
230
1.0
 70
     8
 71
     3
 72
    10
 73
     6
 74
     0
 42
0.000000001
 43
0.00000001
 40
0.0
 40
0.0
 40
0.0
 40
0.0
 40
0.0700769119681885
 40
0.530777664039407
 40
0.9999999999999999
 40
0.9999999999999999
 40
0.9999999999999999
 40
0.9999999999999999
 10
379.8005958389741
 20
106.2237454528197
 30
0.0
 10
379.8280718854641
 20
106.1900117083458
 30
0.0
 10
380.0361813949075
 20
105.9345050430513
 30
0.0
 10
380.4698953738822
 20
105.4766122569921
 30
0.0
 10
380.9251758369622
 20
105.1019038601855
 30
0.0
 10
381.1549021069656
 20
104.9128327945066
 30
0.0
  0
SPLINE
  5
43F
330
1F
100
AcDbEntity
  8
0
  6
Continuous
 62
     7
370
    25
100
AcDbSpline
210
0.0
220
0.0
230
1.0
 70
     8
 71
     3
 72
     9
 73
     5
 74
     0
 42
0.000000001
 43
0.00000001
 40
0.0
 40
0.0
 40
0.0
 40
0.0
 40
0.4954579634770042
 40
0.9999999999999999
 40
0.9999999999999999
 40
0.9999999999999999
 40
0.9999999999999999
 10
378.8568050681093
 20
107.7716436632447
 30
0.0
 10
378.9860464658539
 20
107.5063834409799
 30
0.0
 10
379.2468988635781
 20
106.970999529894
 30
0.0
 10
379.6149158162155
 20
106.4743340603128
 30
0.0
 10
379.8005958389741
 20
106.2237454528197
 30
0.0
  0
LINE
  5
440
330
1F
100
AcDbEntity
  8
0
  6
Continuous
 62
     7
370
    25
100
AcDbLine
 10
381.2393613567
 20
109.147064132
 30
0.0
 11
378.8568050681
 21
107.7716436632
 31
0.0
  0
ARC
  5
441
330
1F
100
AcDbEntity
  8
0
  6
Continuous
 62
     7
370
    25
100
AcDbCircle
 10
377.3250417159
 20
104.5892529676
 30
0.0
 40
2.96646825372213
100
AcDbArc
 50
33.4349146449
 51
86.5704618878
  0
ARC
  5
442
330
1F
100
AcDbEntity
  8
0
  6
Continuous
 62
     7
370
    25
100
AcDbCircle
 10
375.96652914
 20
103.0324863493
 30
0.0
 40
4.988406771507428
100
AcDbArc
 50
2.6392873612
 51
39.7720723791
  0
ARC
  5
443
330
1F
100
AcDbEntity
  8
0
  6
Continuous
 62
     7
370
    25
100
AcDbCircle
 10
379.5389887182
 20
103.0324049778
 30
0.0
 40
1.429248600863864
100
AcDbArc
 50
280.5467778285
 51
9.2518791787
  0
ARC
  5
444
330
1F
100
AcDbEntity
  8
0
  6
Continuous
 62
     7
370
    25
100
AcDbCircle
 10
379.7694159498
 20
103.8683573311
 30
0.0
 40
2.241271832372286
100
AcDbArc
 50
231.3790929283
 51
270.7971070977
  0
LINE
  5
445
330
1F
100
AcDbEntity
  8
0
  6
Continuous
 62
     7
370
    25
100
AcDbLine
 10
376.3706556568
 20
105.5814633058
 30
0.0
 11
376.3534502807
 21
105.9155186948
 31
0.0
  0
ARC
  5
446
330
1F
100
AcDbEntity
  8
0
  6
Continuous
 62
     7
370
    25
100
AcDbCircle
 10
377.7641059209
 20
106.1453060484
 30
0.0
 40
1.429248600863867
100
AcDbArc
 50
100.5467778285
 51
189.2518791787
  0
LWPOLYLINE
  5
447
330
1F
100
AcDbEntity
  8
0
  6
Continuous
 62
     7
370
    25
100
AcDbPolyline
 90
       13
 70
   128
 43
0.0
 10
380.0657608819
 20
103.7724474013
 10
380.0368118472
 20
104.1178962374
 10
379.95114992
 20
104.4826262015
 10
379.8122821096
 20
104.8517052062
 10
379.6258936805
 20
105.2100231135
 10
379.399615397
 20
105.5429103463
 10
379.1427111184
 20
105.8367384621
 10
378.8656985362
 20
106.0794781034
 10
378.5799185781
 20
106.2611914807
 10
378.297071109
 20
106.3744392269
 10
378.0287359376
 20
106.4145849662
 10
377.7858987374
 20
106.3799851271
 10
377.6516285869
 20
106.3209532379
  0
ARC
  5
448
330
1F
100
AcDbEntity
  8
0
  6
Continuous
 62
     7
370
    25
100
AcDbCircle
 10
379.0701342888
 20
103.6713423048
 30
0.0
 40
1.000746997752655
100
AcDbArc
 50
305.5137163071
 51
5.7984640863
  0
SPLINE
  5
449
330
1F
100
AcDbEntity
  8
0
  6
Continuous
 62
     7
370
    25
100
AcDbSpline
210
0.0
220
0.0
230
1.0
 70
     8
 71
     3
 72
    10
 73
     6
 74
     0
 42
0.000000001
 43
0.00000001
 40
0.0
 40
0.0
 40
0.0
 40
0.0
 40
0.2684065359321917
 40
0.6323728964502843
 40
1.0
 40
1.0
 40
1.0
 40
1.0
 10
380.9496443584023
 20
103.2621923314243
 30
0.0
 10
380.9529792438643
 20
103.4032590407456
 30
0.0
 10
380.9608363222013
 20
103.7356159383018
 30
0.0
 10
381.0283222523356
 20
104.2888835126627
 30
0.0
 10
381.1125683054555
 20
104.7041570528004
 30
0.0
 10
381.1549021069656
 20
104.9128327945066
 30
0.0
  0
SPLINE
  5
44A
330
1F
100
AcDbEntity
  8
0
  6
Continuous
 62
     7
370
    25
100
AcDbSpline
210
0.0
220
0.0
230
1.0
 70
     8
 71
     3
 72
    10
 73
     6
 74
     0
 42
0.000000001
 43
0.00000001
 40
0.0
 40
0.0
 40
0.0
 40
0.0
 40
0.0700769119681883
 40
0.5307776640394126
 40
1.0
 40
1.0
 40
1.0
 40
1.0
 10
377.5024988001179
 20
107.5504086345316
 30
0.0
 10
377.5299748466079
 20
107.5529849313655
 30
0.0
 10
377.7380843560509
 20
107.5724983599245
 30
0.0
 10
378.171798335026
 20
107.6331490179219
 30
0.0
 10
378.6270787981059
 20
107.7251976113319
 30
0.0
 10
378.8568050681093
 20
107.7716436632448
 30
0.0
  0
SPLINE
  5
44B
330
1F
100
AcDbEntity
  8
0
  6
Continuous
 62
     7
370
    25
100
AcDbSpline
210
0.0
220
0.0
230
1.0
 70
     8
 71
     3
 72
    10
 73
     6
 74
     0
 42
0.000000001
 43
0.00000001
 40
0.0
 40
0.0
 40
0.0
 40
0.0
 40
0.2684065359321924
 40
0.6323728964502903
 40
1.0
 40
1.0
 40
1.0
 40
1.0
 10
383.7427161440892
 20
104.8745983522741
 30
0.0
 10
383.7393812586271
 20
105.0118146847986
 30
0.0
 10
383.7315241802901
 20
105.3350999928011
 30
0.0
 10
383.6640382501557
 20
105.8104499707514
 30
0.0
 10
383.579792197036
 20
106.1284550883737
 30
0.0
 10
383.5374583955259
 20
106.2882532632445
 30
0.0
  0
SPLINE
  5
44C
330
1F
100
AcDbEntity
  8
0
  6
Continuous
 62
     7
370
    25
100
AcDbSpline
210
0.0
220
0.0
230
1.0
 70
     8
 71
     3
 72
    10
 73
     6
 74
     0
 42
0.000000001
 43
0.00000001
 40
0.0
 40
0.0
 40
0.0
 40
0.0
 40
0.2572432618847676
 40
0.6263798857723062
 40
0.9999999999999999
 40
0.9999999999999999
 40
0.9999999999999999
 40
0.9999999999999999
 10
383.5374583955259
 20
103.2239578891919
 30
0.0
 10
383.5677059447009
 20
103.3700824067742
 30
0.0
 10
383.6413578501321
 20
103.7258913712582
 30
0.0
 10
383.7237995881829
 20
104.2848182138807
 30
0.0
 10
383.736385301808
 20
104.6772154325071
 30
0.0
 10
383.7427161440892
 20
104.8745983522741
 30
0.0
  0
LINE
  5
44D
330
1F
100
AcDbEntity
  8
0
  6
Continuous
 62
     7
370
    25
100
AcDbLine
 10
383.5374583955
 20
103.2239578892
 30
0.0
 11
381.154902107
 21
101.8485374205
 31
0.0
  0
SPLINE
  5
44E
330
1F
100
AcDbEntity
  8
0
  6
Continuous
 62
     7
370
    25
100
AcDbSpline
210
0.0
220
0.0
230
1.0
 70
     8
 71
     3
 72
    10
 73
     6
 74
     0
 42
0.000000001
 43
0.00000001
 40
0.0
 40
0.0
 40
0.0
 40
0.0
 40
0.2572432618847676
 40
0.6263798857723062
 40
0.9999999999999999
 40
0.9999999999999999
 40
0.9999999999999999
 40
0.9999999999999999
 10
381.1549021069656
 20
101.848537420454
 30
0.0
 10
381.1246545577906
 20
101.9597388611173
 30
0.0
 10
381.0510026523593
 20
102.230511145647
 30
0.0
 10
380.9685609143089
 20
102.6942527835904
 30
0.0
 10
380.9559752006836
 20
103.0721188465694
 30
0.0
 10
380.9496443584023
 20
103.2621923314243
 30
0.0
  0
SPLINE
  5
44F
330
1F
100
AcDbEntity
  8
0
  6
Continuous
 62
     7
370
    25
100
AcDbSpline
210
0.0
220
0.0
230
1.0
 70
     8
 71
     3
 72
     9
 73
     5
 74
     0
 42
0.000000001
 43
0.00000001
 40
0.0
 40
0.0
 40
0.0
 40
0.0
 40
0.4954579634770029
 40
1.0
 40
1.0
 40
1.0
 40
1.0
 10
378.9412643178133
 20
108.9415796266684
 30
0.0
 10
379.1852439821705
 20
108.9913839158905
 30
0.0
 10
379.6776766047991
 20
109.0919056410286
 30
0.0
 10
380.0883623590062
 20
109.1390356065806
 30
0.0
 10
380.2955705858047
 20
109.1628146553815
 30
0.0
  0
SPLINE
  5
450
330
1F
100
AcDbEntity
  8
0
  6
Continuous
 62
     7
370
    25
100
AcDbSpline
210
0.0
220
0.0
230
1.0
 70
     8
 71
     3
 72
    10
 73
     6
 74
     0
 42
0.000000001
 43
0.00000001
 40
0.0
 40
0.0
 40
0.0
 40
0.0
 40
0.0700769119681892
 40
0.5307776640394126
 40
1.0
 40
1.0
 40
1.0
 40
1.0
 10
380.2955705858047
 20
109.1628146553815
 30
0.0
 10
380.3225566509745
 20
109.16510809202
 30
0.0
 10
380.5269549360887
 20
109.1824790763772
 30
0.0
 10
380.8710139899586
 20
109.1913730477835
 30
0.0
 10
381.115831086771
 20
109.1619237260031
 30
0.0
 10
381.2393613566696
 20
109.1470641319827
 30
0.0
  0
SPLINE
  5
451
330
1F
100
AcDbEntity
  8
0
  6
Continuous
 62
     7
370
    25
100
AcDbSpline
210
0.0
220
0.0
230
1.0
 70
     8
 71
     3
 72
     9
 73
     5
 74
     0
 42
0.000000001
 43
0.00000001
 40
0.0
 40
0.0
 40
0.0
 40
0.0
 40
0.4954579634770042
 40
0.9999999999999999
 40
0.9999999999999999
 40
0.9999999999999999
 40
0.9999999999999999
 10
376.558708029253
 20
107.5661591579303
 30
0.0
 10
376.6879494269976
 20
107.549726455731
 30
0.0
 10
376.9488018247218
 20
107.5165597626698
 30
0.0
 10
377.3168187773592
 20
107.5390575533863
 30
0.0
 10
377.5024988001179
 20
107.5504086345316
 30
0.0
  0
LINE
  5
452
330
1F
100
AcDbEntity
  8
0
  6
Continuous
 62
     7
370
    25
100
AcDbLine
 10
378.9412643178
 20
108.9415796267
 30
0.0
 11
376.5587080293
 21
107.5661591579
 31
0.0
  0
SPLINE
  5
453
330
1F
100
AcDbEntity
  8
0
  6
Continuous
 62
     7
370
    25
100
AcDbSpline
210
0.0
220
0.0
230
1.0
 70
     8
 71
     3
 72
     9
 73
     5
 74
     0
 42
0.000000001
 43
0.00000001
 40
0.0
 40
0.0
 40
0.0
 40
0.0
 40
0.4954579634770051
 40
1.0
 40
1.0
 40
1.0
 40
1.0
 10
381.1549021069656
 20
101.848537420454
 30
0.0
 10
380.9109224426084
 20
101.7987331312318
 30
0.0
 10
380.4184898199799
 20
101.6982114060938
 30
0.0
 10
380.0078040657728
 20
101.6510814405417
 30
0.0
 10
379.8005958389741
 20
101.6273023917409
 30
0.0
  0
SPLINE
  5
454
330
1F
100
AcDbEntity
  8
0
  6
Continuous
 62
     7
370
    25
100
AcDbSpline
210
0.0
220
0.0
230
1.0
 70
     8
 71
     3
 72
    10
 73
     6
 74
     0
 42
0.000000001
 43
0.00000001
 40
0.0
 40
0.0
 40
0.0
 40
0.0
 40
0.2684065359321932
 40
0.632372896450284
 40
0.9999999999999999
 40
0.9999999999999999
 40
0.9999999999999999
 40
0.9999999999999999
 10
376.3534502806897
 20
105.9155186948481
 30
0.0
 10
376.3567851661518
 20
106.0565854041694
 30
0.0
 10
376.3646422444887
 20
106.3889423017256
 30
0.0
 10
376.4321281746232
 20
106.9422098760865
 30
0.0
 10
376.5163742277429
 20
107.3574834162243
 30
0.0
 10
376.5587080292531
 20
107.5661591579304
 30
0.0
  0
LINE
  5
455
330
1F
100
AcDbEntity
  8
0
  6
Continuous
 62
     7
370
    25
100
AcDbLine
 10
378.8568050681
 20
101.6430529151
 30
0.0
 11
378.3326294406
 21
102.0954096183
 31
0.0
  0
SPLINE
  5
456
330
1F
100
AcDbEntity
  8
0
  6
Continuous
 62
     7
370
    25
100
AcDbSpline
210
0.0
220
0.0
230
1.0
 70
     8
 71
     3
 72
    10
 73
     6
 74
     0
 42
0.000000001
 43
0.00000001
 40
0.0
 40
0.0
 40
0.0
 40
0.0
 40
0.0700769119681905
 40
0.530777664039412
 40
0.9999999999999999
 40
0.9999999999999999
 40
0.9999999999999999
 40
0.9999999999999999
 10
379.8005958389741
 20
101.6273023917409
 30
0.0
 10
379.7736097738044
 20
101.6250089551023
 30
0.0
 10
379.5692114886903
 20
101.6076379707451
 30
0.0
 10
379.2251524348204
 20
101.5987439993389
 30
0.0
 10
378.9803353380078
 20
101.6281933211192
 30
0.0
 10
378.8568050681093
 20
101.6430529151396
 30
0.0
  0
LINE
  5
457
330
1F
100
AcDbEntity
  8
0
  6
Continuous
 62
     7
370
    25
100
AcDbLine
 10
376.3720201841
 20
105.5822510307
 30
0.0
 11
376.3534502807
 21
105.9155186948
 31
0.0
  0
SPLINE
  5
458
330
1F
100
AcDbEntity
  8
0
  6
Continuous
 62
     7
370
    25
100
AcDbSpline
210
0.0
220
0.0
230
1.0
 70
     8
 71
     3
 72
     9
 73
     5
 74
     0
 42
0.000000001
 43
0.00000001
 40
0.0
 40
0.0
 40
0.0
 40
0.0
 40
0.4954579634770042
 40
0.9999999999999999
 40
0.9999999999999999
 40
0.9999999999999999
 40
0.9999999999999999
 10
329.6205663300516
 20
138.9459602135117
 30
0.0
 10
329.8645459944089
 20
138.7469369826682
 30
0.0
 10
330.3569786170375
 20
138.3452414897817
 30
0.0
 10
330.7676643712445
 20
137.8732081950361
 30
0.0
 10
330.9748725980431
 20
137.6350475551985
 30
0.0
  0
SPLINE
  5
459
330
1F
100
AcDbEntity
  8
0
  6
Continuous
 62
     7
370
    25
100
AcDbSpline
210
0.0
220
0.0
230
1.0
 70
     8
 71
     3
 72
    10
 73
     6
 74
     0
 42
0.000000001
 43
0.00000001
 40
0.0
 40
0.0
 40
0.0
 40
0.0
 40
0.0700769119681885
 40
0.530777664039407
 40
0.9999999999999999
 40
0.9999999999999999
 40
0.9999999999999999
 40
0.9999999999999999
 10
330.9748725980431
 20
137.6350475551985
 30
0.0
 10
331.0018586632128
 20
137.6010309505293
 30
0.0
 10
331.2062569483273
 20
137.3433818410328
 30
0.0
 10
331.5503160021968
 20
136.8337323683825
 30
0.0
 10
331.7951330990094
 20
136.3375260563855
 30
0.0
 10
331.918663368908
 20
136.0871493447735
 30
0.0
  0
LINE
  5
45A
330
1F
100
AcDbEntity
  8
0
  6
Continuous
 62
     7
370
    25
100
AcDbLine
 10
331.9186633689
 20
136.0871493448
 30
0.0
 11
329.5361070803
 21
134.711728876
 31
0.0
  0
SPLINE
  5
45B
330
1F
100
AcDbEntity
  8
0
  6
Continuous
 62
     7
370
    25
100
AcDbSpline
210
0.0
220
0.0
230
1.0
 70
     8
 71
     3
 72
    10
 73
     6
 74
     0
 42
0.000000001
 43
0.00000001
 40
0.0
 40
0.0
 40
0.0
 40
0.0
 40
0.0700769119681885
 40
0.530777664039407
 40
0.9999999999999999
 40
0.9999999999999999
 40
0.9999999999999999
 40
0.9999999999999999
 10
328.1818008123562
 20
136.0226415343486
 30
0.0
 10
328.2092768588462
 20
135.9889077898748
 30
0.0
 10
328.4173863682896
 20
135.7334011245802
 30
0.0
 10
328.8511003472643
 20
135.275508338521
 30
0.0
 10
329.3063808103443
 20
134.9007999417144
 30
0.0
 10
329.5361070803477
 20
134.7117288760355
 30
0.0
  0
SPLINE
  5
45C
330
1F
100
AcDbEntity
  8
0
  6
Continuous
 62
     7
370
    25
100
AcDbSpline
210
0.0
220
0.0
230
1.0
 70
     8
 71
     3
 72
     9
 73
     5
 74
     0
 42
0.000000001
 43
0.00000001
 40
0.0
 40
0.0
 40
0.0
 40
0.0
 40
0.4954579634770042
 40
0.9999999999999999
 40
0.9999999999999999
 40
0.9999999999999999
 40
0.9999999999999999
 10
327.2380100414914
 20
137.5705397447737
 30
0.0
 10
327.367251439236
 20
137.3052795225088
 30
0.0
 10
327.6281038369602
 20
136.769895611423
 30
0.0
 10
327.9961207895976
 20
136.2732301418418
 30
0.0
 10
328.1818008123562
 20
136.0226415343487
 30
0.0
  0
LINE
  5
45D
330
1F
100
AcDbEntity
  8
0
  6
Continuous
 62
     7
370
    25
100
AcDbLine
 10
329.6205663301
 20
138.9459602135
 30
0.0
 11
327.2380100415
 21
137.5705397448
 31
0.0
  0
ARC
  5
45E
330
1F
100
AcDbEntity
  8
0
  6
Continuous
 62
     7
370
    25
100
AcDbCircle
 10
325.7062466893
 20
134.3881490492
 30
0.0
 40
2.966468253722088
100
AcDbArc
 50
33.4349146449
 51
86.5704618878
  0
ARC
  5
45F
330
1F
100
AcDbEntity
  8
0
  6
Continuous
 62
     7
370
    25
100
AcDbCircle
 10
324.3477341134
 20
132.8313824308
 30
0.0
 40
4.988406771508191
100
AcDbArc
 50
2.6392873612
 51
39.7720723791
  0
ARC
  5
460
330
1F
100
AcDbEntity
  8
0
  6
Continuous
 62
     7
370
    25
100
AcDbCircle
 10
327.9201936916
 20
132.8313010594
 30
0.0
 40
1.42924860086396
100
AcDbArc
 50
280.5467778285
 51
9.2518791787
  0
ARC
  5
461
330
1F
100
AcDbEntity
  8
0
  6
Continuous
 62
     7
370
    25
100
AcDbCircle
 10
328.1506209232
 20
133.6672534126
 30
0.0
 40
2.241271832372291
100
AcDbArc
 50
231.3790929283
 51
270.7971070977
  0
LINE
  5
462
330
1F
100
AcDbEntity
  8
0
  6
Continuous
 62
     7
370
    25
100
AcDbLine
 10
324.7518606302
 20
135.3803593874
 30
0.0
 11
324.7346552541
 21
135.7144147764
 31
0.0
  0
ARC
  5
463
330
1F
100
AcDbEntity
  8
0
  6
Continuous
 62
     7
370
    25
100
AcDbCircle
 10
326.1453108943
 20
135.94420213
 30
0.0
 40
1.429248600863805
100
AcDbArc
 50
100.5467778285
 51
189.2518791787
  0
LWPOLYLINE
  5
464
330
1F
100
AcDbEntity
  8
0
  6
Continuous
 62
     7
370
    25
100
AcDbPolyline
 90
       13
 70
   128
 43
0.0
 10
328.4469658553
 20
133.5713434828
 10
328.4180168206
 20
133.9167923189
 10
328.3323548934
 20
134.281522283
 10
328.193487083
 20
134.6506012877
 10
328.0070986539
 20
135.008919195
 10
327.7808203703
 20
135.3418064278
 10
327.5239160918
 20
135.6356345436
 10
327.2469035096
 20
135.8783741849
 10
326.9611235514
 20
136.0600875622
 10
326.6782760824
 20
136.1733353085
 10
326.409940911
 20
136.2134810477
 10
326.1671037108
 20
136.1788812086
 10
326.0328335603
 20
136.1198493194
  0
ARC
  5
465
330
1F
100
AcDbEntity
  8
0
  6
Continuous
 62
     7
370
    25
100
AcDbCircle
 10
327.4513392622
 20
133.4702383863
 30
0.0
 40
1.000746997752654
100
AcDbArc
 50
305.5137163071
 51
5.7984640863
  0
SPLINE
  5
466
330
1F
100
AcDbEntity
  8
0
  6
Continuous
 62
     7
370
    25
100
AcDbSpline
210
0.0
220
0.0
230
1.0
 70
     8
 71
     3
 72
    10
 73
     6
 74
     0
 42
0.000000001
 43
0.00000001
 40
0.0
 40
0.0
 40
0.0
 40
0.0
 40
0.2684065359321917
 40
0.6323728964502843
 40
1.0
 40
1.0
 40
1.0
 40
1.0
 10
329.3308493317844
 20
133.0610884129533
 30
0.0
 10
329.3341842172464
 20
133.2021551222746
 30
0.0
 10
329.3420412955834
 20
133.5345120198307
 30
0.0
 10
329.4095272257177
 20
134.0877795941916
 30
0.0
 10
329.4937732788376
 20
134.5030531343294
 30
0.0
 10
329.5361070803477
 20
134.7117288760355
 30
0.0
  0
SPLINE
  5
467
330
1F
100
AcDbEntity
  8
0
  6
Continuous
 62
     7
370
    25
100
AcDbSpline
210
0.0
220
0.0
230
1.0
 70
     8
 71
     3
 72
    10
 73
     6
 74
     0
 42
0.000000001
 43
0.00000001
 40
0.0
 40
0.0
 40
0.0
 40
0.0
 40
0.0700769119681883
 40
0.5307776640394126
 40
1.0
 40
1.0
 40
1.0
 40
1.0
 10
325.8837037735
 20
137.3493047160605
 30
0.0
 10
325.91117981999
 20
137.3518810128944
 30
0.0
 10
326.1192893294331
 20
137.3713944414534
 30
0.0
 10
326.5530033084081
 20
137.4320450994509
 30
0.0
 10
327.008283771488
 20
137.5240936928608
 30
0.0
 10
327.2380100414915
 20
137.5705397447737
 30
0.0
  0
SPLINE
  5
468
330
1F
100
AcDbEntity
  8
0
  6
Continuous
 62
     7
370
    25
100
AcDbSpline
210
0.0
220
0.0
230
1.0
 70
     8
 71
     3
 72
    10
 73
     6
 74
     0
 42
0.000000001
 43
0.00000001
 40
0.0
 40
0.0
 40
0.0
 40
0.0
 40
0.2684065359321924
 40
0.6323728964502903
 40
1.0
 40
1.0
 40
1.0
 40
1.0
 10
332.1239211174713
 20
134.6734944338031
 30
0.0
 10
332.1205862320091
 20
134.8107107663274
 30
0.0
 10
332.1127291536723
 20
135.13399607433
 30
0.0
 10
332.0452432235378
 20
135.6093460522804
 30
0.0
 10
331.9609971704181
 20
135.9273511699026
 30
0.0
 10
331.918663368908
 20
136.0871493447735
 30
0.0
  0
SPLINE
  5
469
330
1F
100
AcDbEntity
  8
0
  6
Continuous
 62
     7
370
    25
100
AcDbSpline
210
0.0
220
0.0
230
1.0
 70
     8
 71
     3
 72
    10
 73
     6
 74
     0
 42
0.000000001
 43
0.00000001
 40
0.0
 40
0.0
 40
0.0
 40
0.0
 40
0.2572432618847676
 40
0.6263798857723062
 40
0.9999999999999999
 40
0.9999999999999999
 40
0.9999999999999999
 40
0.9999999999999999
 10
331.918663368908
 20
133.0228539707208
 30
0.0
 10
331.948910918083
 20
133.1689784883031
 30
0.0
 10
332.0225628235142
 20
133.5247874527871
 30
0.0
 10
332.105004561565
 20
134.0837142954096
 30
0.0
 10
332.1175902751901
 20
134.476111514036
 30
0.0
 10
332.1239211174713
 20
134.6734944338031
 30
0.0
  0
LINE
  5
46A
330
1F
100
AcDbEntity
  8
0
  6
Continuous
 62
     7
370
    25
100
AcDbLine
 10
331.9186633689
 20
133.0228539707
 30
0.0
 11
329.5361070803
 21
131.647433502
 31
0.0
  0
SPLINE
  5
46B
330
1F
100
AcDbEntity
  8
0
  6
Continuous
 62
     7
370
    25
100
AcDbSpline
210
0.0
220
0.0
230
1.0
 70
     8
 71
     3
 72
    10
 73
     6
 74
     0
 42
0.000000001
 43
0.00000001
 40
0.0
 40
0.0
 40
0.0
 40
0.0
 40
0.2572432618847676
 40
0.6263798857723062
 40
0.9999999999999999
 40
0.9999999999999999
 40
0.9999999999999999
 40
0.9999999999999999
 10
329.5361070803477
 20
131.6474335019829
 30
0.0
 10
329.5058595311727
 20
131.7586349426462
 30
0.0
 10
329.4322076257415
 20
132.0294072271759
 30
0.0
 10
329.349765887691
 20
132.4931488651193
 30
0.0
 10
329.3371801740657
 20
132.8710149280983
 30
0.0
 10
329.3308493317844
 20
133.0610884129533
 30
0.0
  0
SPLINE
  5
46C
330
1F
100
AcDbEntity
  8
0
  6
Continuous
 62
     7
370
    25
100
AcDbSpline
210
0.0
220
0.0
230
1.0
 70
     8
 71
     3
 72
     9
 73
     5
 74
     0
 42
0.000000001
 43
0.00000001
 40
0.0
 40
0.0
 40
0.0
 40
0.0
 40
0.4954579634770029
 40
1.0
 40
1.0
 40
1.0
 40
1.0
 10
327.3224692911955
 20
138.7404757081973
 30
0.0
 10
327.5664489555526
 20
138.7902799974194
 30
0.0
 10
328.0588815781812
 20
138.8908017225575
 30
0.0
 10
328.4695673323882
 20
138.9379316881095
 30
0.0
 10
328.6767755591869
 20
138.9617107369104
 30
0.0
  0
SPLINE
  5
46D
330
1F
100
AcDbEntity
  8
0
  6
Continuous
 62
     7
370
    25
100
AcDbSpline
210
0.0
220
0.0
230
1.0
 70
     8
 71
     3
 72
    10
 73
     6
 74
     0
 42
0.000000001
 43
0.00000001
 40
0.0
 40
0.0
 40
0.0
 40
0.0
 40
0.0700769119681892
 40
0.5307776640394126
 40
1.0
 40
1.0
 40
1.0
 40
1.0
 10
328.6767755591869
 20
138.9617107369104
 30
0.0
 10
328.7037616243566
 20
138.9640041735489
 30
0.0
 10
328.9081599094708
 20
138.9813751579061
 30
0.0
 10
329.2522189633407
 20
138.9902691293125
 30
0.0
 10
329.4970360601532
 20
138.960819807532
 30
0.0
 10
329.6205663300517
 20
138.9459602135117
 30
0.0
  0
SPLINE
  5
46E
330
1F
100
AcDbEntity
  8
0
  6
Continuous
 62
     7
370
    25
100
AcDbSpline
210
0.0
220
0.0
230
1.0
 70
     8
 71
     3
 72
     9
 73
     5
 74
     0
 42
0.000000001
 43
0.00000001
 40
0.0
 40
0.0
 40
0.0
 40
0.0
 40
0.4954579634770042
 40
0.9999999999999999
 40
0.9999999999999999
 40
0.9999999999999999
 40
0.9999999999999999
 10
324.9399130026351
 20
137.3650552394593
 30
0.0
 10
325.0691544003798
 20
137.3486225372599
 30
0.0
 10
325.330006798104
 20
137.3154558441987
 30
0.0
 10
325.6980237507413
 20
137.3379536349152
 30
0.0
 10
325.8837037735
 20
137.3493047160605
 30
0.0
  0
LINE
  5
46F
330
1F
100
AcDbEntity
  8
0
  6
Continuous
 62
     7
370
    25
100
AcDbLine
 10
327.3224692912
 20
138.7404757082
 30
0.0
 11
324.9399130026
 21
137.3650552395
 31
0.0
  0
SPLINE
  5
470
330
1F
100
AcDbEntity
  8
0
  6
Continuous
 62
     7
370
    25
100
AcDbSpline
210
0.0
220
0.0
230
1.0
 70
     8
 71
     3
 72
     9
 73
     5
 74
     0
 42
0.000000001
 43
0.00000001
 40
0.0
 40
0.0
 40
0.0
 40
0.0
 40
0.4954579634770051
 40
1.0
 40
1.0
 40
1.0
 40
1.0
 10
329.5361070803477
 20
131.6474335019829
 30
0.0
 10
329.2921274159906
 20
131.5976292127608
 30
0.0
 10
328.7996947933621
 20
131.4971074876227
 30
0.0
 10
328.3890090391549
 20
131.4499775220707
 30
0.0
 10
328.1818008123562
 20
131.4261984732697
 30
0.0
  0
SPLINE
  5
471
330
1F
100
AcDbEntity
  8
0
  6
Continuous
 62
     7
370
    25
100
AcDbSpline
210
0.0
220
0.0
230
1.0
 70
     8
 71
     3
 72
    10
 73
     6
 74
     0
 42
0.000000001
 43
0.00000001
 40
0.0
 40
0.0
 40
0.0
 40
0.0
 40
0.2684065359321932
 40
0.632372896450284
 40
0.9999999999999999
 40
0.9999999999999999
 40
0.9999999999999999
 40
0.9999999999999999
 10
324.7346552540719
 20
135.7144147763771
 30
0.0
 10
324.7379901395339
 20
135.8554814856984
 30
0.0
 10
324.7458472178708
 20
136.1878383832545
 30
0.0
 10
324.8133331480053
 20
136.7411059576155
 30
0.0
 10
324.897579201125
 20
137.1563794977532
 30
0.0
 10
324.9399130026352
 20
137.3650552394593
 30
0.0
  0
LINE
  5
472
330
1F
100
AcDbEntity
  8
0
  6
Continuous
 62
     7
370
    25
100
AcDbLine
 10
327.2380100415
 20
131.4419489967
 30
0.0
 11
326.713834414
 21
131.8943056998
 31
0.0
  0
SPLINE
  5
473
330
1F
100
AcDbEntity
  8
0
  6
Continuous
 62
     7
370
    25
100
AcDbSpline
210
0.0
220
0.0
230
1.0
 70
     8
 71
     3
 72
    10
 73
     6
 74
     0
 42
0.000000001
 43
0.00000001
 40
0.0
 40
0.0
 40
0.0
 40
0.0
 40
0.0700769119681905
 40
0.530777664039412
 40
0.9999999999999999
 40
0.9999999999999999
 40
0.9999999999999999
 40
0.9999999999999999
 10
328.1818008123562
 20
131.4261984732697
 30
0.0
 10
328.1548147471865
 20
131.4239050366313
 30
0.0
 10
327.9504164620724
 20
131.406534052274
 30
0.0
 10
327.6063574082025
 20
131.3976400808678
 30
0.0
 10
327.3615403113899
 20
131.4270894026482
 30
0.0
 10
327.2380100414915
 20
131.4419489966685
 30
0.0
  0
LINE
  5
474
330
1F
100
AcDbEntity
  8
0
  6
Continuous
 62
     7
370
    25
100
AcDbLine
 10
324.7532251575
 20
135.3811471122
 30
0.0
 11
324.7346552541
 21
135.7144147764
 31
0.0
  0
LINE
  5
475
330
1F
100
AcDbEntity
  8
0
  6
Continuous
 62
     7
370
    25
100
AcDbLine
 10
339.5485423199
 20
142.2268618689
 30
0.0
 11
335.3059016328
 21
144.6760862044
 31
0.0
  0
LINE
  5
476
330
1F
100
AcDbEntity
  8
0
  6
Continuous
 62
     7
370
    25
100
AcDbLine
 10
339.5485423199
 20
136.9193465917
 30
0.0
 11
339.5485423199
 21
142.2268618689
 31
0.0
  0
LINE
  5
477
330
1F
100
AcDbEntity
  8
0
  6
Continuous
 62
     7
370
    25
100
AcDbLine
 10
337.5101872395
 20
131.061245826
 30
0.0
 11
339.5485423199
 21
136.9193465917
 31
0.0
  0
ARC
  5
478
330
1F
100
AcDbEntity
  8
0
  6
Continuous
 62
     7
370
    25
100
AcDbCircle
 10
340.2811071823
 20
130.5613699156
 30
0.0
 40
2.815647928039944
100
AcDbArc
 50
169.7737896605
 51
239.4825590173
  0
LINE
  5
479
330
1F
100
AcDbEntity
  8
0
  6
Continuous
 62
     7
370
    25
100
AcDbLine
 10
375.9546576755
 20
106.7164594184
 30
0.0
 11
338.8513194143
 21
128.135760674
 31
0.0
  0
LINE
  5
47A
330
1F
100
AcDbEntity
  8
0
  6
Continuous
 62
     7
370
    25
100
AcDbLine
 10
376.2043727353
 20
106.5979623488
 30
0.0
 11
375.9546576755
 21
106.7164594184
 31
0.0
  0
LINE
  5
47B
330
1F
100
AcDbEntity
  8
0
  6
Continuous
 62
     7
370
    25
100
AcDbLine
 10
375.2574347699
 20
121.6125570454
 30
0.0
 11
375.2574347699
 21
117.1473411474
 31
0.0
  0
LINE
  5
47C
330
1F
100
AcDbEntity
  8
0
  6
Continuous
 62
     7
370
    25
100
AcDbLine
 10
378.4394152852
 20
119.7756387938
 30
0.0
 11
375.2574347699
 21
121.6125570454
 31
0.0
  0
LINE
  5
47D
330
1F
100
AcDbEntity
  8
0
  6
Continuous
 62
     7
370
    25
100
AcDbLine
 10
375.2574347699
 20
121.6125570454
 30
0.0
 11
375.964541551
 21
122.0207611013
 31
0.0
  0
LINE
  5
47E
330
1F
100
AcDbEntity
  8
0
  6
Continuous
 62
     7
370
    25
100
AcDbLine
 10
378.4394152852
 20
120.5920469056
 30
0.0
 11
375.964541551
 21
122.0207611013
 31
0.0
  0
LINE
  5
47F
330
1F
100
AcDbEntity
  8
0
  6
Continuous
 62
     7
370
    25
100
AcDbLine
 10
375.9685873293
 20
107.5248261123
 30
0.0
 11
339.5584261954
 21
128.5439647299
 31
0.0
  0
LINE
  5
480
330
1F
100
AcDbEntity
  8
0
  6
Continuous
 62
     7
370
    25
100
AcDbLine
 10
339.5485423199
 20
142.2268618689
 30
0.0
 11
340.2556491011
 21
142.6350659248
 31
0.0
  0
LINE
  5
481
330
1F
100
AcDbEntity
  8
0
  6
Continuous
 62
     7
370
    25
100
AcDbLine
 10
340.2556491011
 20
142.6350659248
 30
0.0
 11
335.3059016328
 21
145.4924943162
 31
0.0
  0
LINE
  5
482
330
1F
100
AcDbEntity
  8
0
  6
Continuous
 62
     7
370
    25
100
AcDbLine
 10
339.5485423199
 20
136.9193465917
 30
0.0
 11
340.2556491011
 21
137.3275506476
 31
0.0
  0
LINE
  5
483
330
1F
100
AcDbEntity
  8
0
  6
Continuous
 62
     7
370
    25
100
AcDbLine
 10
340.2556491011
 20
137.3275506476
 30
0.0
 11
340.2556491011
 21
142.6350659248
 31
0.0
  0
LINE
  5
484
330
1F
100
AcDbEntity
  8
0
  6
Continuous
 62
     7
370
    25
100
AcDbLine
 10
338.2172940207
 20
131.4694498819
 30
0.0
 11
340.2556491011
 21
137.3275506476
 31
0.0
  0
ARC
  5
485
330
1F
100
AcDbEntity
  8
0
  6
Continuous
 62
     7
370
    25
100
AcDbCircle
 10
341.0113154249
 20
130.9801643904
 30
0.0
 40
2.836539423141868
100
AcDbArc
 50
170.0671538107
 51
239.1891948672
  0
LINE
  5
486
330
1F
100
AcDbEntity
  8
0
  6
Continuous
 62
     7
370
    25
100
AcDbLine
 10
379.8536288476
 20
122.8379985885
 30
0.0
 11
378.4394152852
 21
123.6544067003
 31
0.0
  0
LINE
  5
487
330
1F
100
AcDbEntity
  8
0
  6
Continuous
 62
     7
370
    25
100
AcDbLine
 10
385.3337064018
 20
113.5503610661
 30
0.0
 11
385.2740839875
 21
113.6514091564
 31
0.0
  0
LINE
  5
488
330
1F
100
AcDbEntity
  8
0
  6
Continuous
 62
     7
370
    25
100
AcDbLine
 10
384.4203601427
 20
115.0983006531
 30
0.0
 11
379.8536288476
 21
122.8379985885
 31
0.0
  0
LINE
  5
489
330
1F
100
AcDbEntity
  8
0
  6
Continuous
 62
     7
370
    25
100
AcDbLine
 10
391.5208907371
 20
89.7691904827
 30
0.0
 11
385.3337064018
 21
113.5503610661
 31
0.0
  0
LINE
  5
48A
330
1F
100
AcDbEntity
  8
0
  6
Continuous
 62
     7
370
    25
100
AcDbLine
 10
391.0584649661
 20
90.0361431981
 30
0.0
 11
391.5208907371
 21
89.7691904827
 31
0.0
  0
LINE
  5
48B
330
1F
100
AcDbEntity
  8
0
  6
Continuous
 62
     7
370
    25
100
AcDbLine
 10
332.8310278987
 20
149.9835683066
 30
0.0
 11
328.2642966035
 21
147.5165060934
 31
0.0
  0
LINE
  5
48C
330
1F
100
AcDbEntity
  8
0
  6
Continuous
 62
     7
370
    25
100
AcDbLine
 10
334.245241461
 20
149.1671601948
 30
0.0
 11
332.8310278987
 21
149.9835683066
 31
0.0
  0
LINE
  5
48D
330
1F
100
AcDbEntity
  8
0
  6
Continuous
 62
     7
370
    25
100
AcDbLine
 10
334.245241461
 20
142.2265632938
 30
0.0
 11
334.245241461
 21
149.1671601948
 31
0.0
  0
ARC
  5
48E
330
1F
100
AcDbEntity
  8
0
  6
Continuous
 62
     7
370
    25
100
AcDbCircle
 10
337.3156736638
 20
142.3662849983
 30
0.0
 40
3.073609615144251
100
AcDbArc
 50
182.6054784857
 51
237.39452166
  0
LINE
  5
48F
330
1F
100
AcDbEntity
  8
0
  6
Continuous
 62
     7
370
    25
100
AcDbLine
 10
337.2600905467
 20
138.853046339
 30
0.0
 11
335.6594550234
 21
139.7770735582
 31
0.0
  0
ARC
  5
490
330
1F
100
AcDbEntity
  8
0
  6
Continuous
 62
     7
370
    25
100
AcDbCircle
 10
336.3477550968
 20
137.3284596139
 30
0.0
 40
1.776716256381484
100
AcDbArc
 50
350.1532804642
 51
59.1030682137
  0
LINE
  5
491
330
1F
100
AcDbEntity
  8
0
  6
Continuous
 62
     7
370
    25
100
AcDbLine
 10
335.9171891742
 20
130.7562518668
 30
0.0
 11
338.0982981559
 21
137.024618119
 31
0.0
  0
ARC
  5
492
330
1F
100
AcDbEntity
  8
0
  6
Continuous
 62
     7
370
    25
100
AcDbCircle
 10
338.6881091169
 20
130.2563759564
 30
0.0
 40
2.815647928040103
100
AcDbArc
 50
169.7737896606
 51
239.4825590173
  0
LINE
  5
493
330
1F
100
AcDbEntity
  8
0
  6
Continuous
 62
     7
370
    25
100
AcDbLine
 10
375.4263353973
 20
105.7968412099
 30
0.0
 11
337.2583213489
 21
127.8307667148
 31
0.0
  0
ARC
  5
494
330
1F
100
AcDbEntity
  8
0
  6
Continuous
 62
     7
370
    25
100
AcDbCircle
 10
376.0108331759
 20
106.6010482741
 30
0.0
 40
0.9941763703147951
100
AcDbArc
 50
233.9903419061
 51
294.6991996648
  0
LINE
  5
495
330
1F
100
AcDbEntity
  8
0
  6
Continuous
 62
     7
370
    25
100
AcDbLine
 10
374.5863585903
 20
115.9605091924
 30
0.0
 11
374.6212194061
 21
115.8200720195
 31
0.0
  0
LWPOLYLINE
  5
496
330
1F
100
AcDbEntity
  8
0
  6
Continuous
 62
     7
370
    25
100
AcDbPolyline
 90
        9
 70
   128
 43
0.0
 10
375.4245661995
 20
116.8211635065
 10
375.2172902954
 20
116.9123594745
 10
375.0215742959
 20
116.9415456583
 10
374.8483334027
 20
116.9070943264
 10
374.7072293669
 20
116.8109268509
 10
374.6061316473
 20
116.6584065511
 10
374.550678526
 20
116.4580395777
 10
374.5439626577
 20
116.2210005202
 10
374.5863585903
 20
115.9605091924
  0
LINE
  5
497
330
1F
100
AcDbEntity
  8
0
  6
Continuous
 62
     7
370
    25
100
AcDbLine
 10
377.0252017228
 20
115.8971362874
 30
0.0
 11
375.4245661995
 21
116.8211635065
 31
0.0
  0
ARC
  5
498
330
1F
100
AcDbEntity
  8
0
  6
Continuous
 62
     7
370
    25
100
AcDbCircle
 10
377.5772665503
 20
116.5739554055
 30
0.0
 40
0.8734183948569447
100
AcDbArc
 50
230.7967147643
 51
9.2140369905
  0
LINE
  5
499
330
1F
100
AcDbEntity
  8
0
  6
Continuous
 62
     7
370
    25
100
AcDbLine
 10
378.4394152852
 20
123.6544067003
 30
0.0
 11
378.4394152852
 21
116.9180777024
 31
0.0
  0
LINE
  5
49A
330
1F
100
AcDbEntity
  8
0
  6
Continuous
 62
     7
370
    25
100
AcDbLine
 10
391.5208907371
 20
89.7691904827
 30
0.0
 11
392.5815509089
 21
90.3814965665
 31
0.0
  0
LINE
  5
49B
330
1F
100
AcDbEntity
  8
0
  6
Continuous
 62
     7
370
    25
100
AcDbLine
 10
385.3337064018
 20
113.5503610661
 30
0.0
 11
386.3943665735
 21
114.1626671499
 31
0.0
  0
LINE
  5
49C
330
1F
100
AcDbEntity
  8
0
  6
Continuous
 62
     7
370
    25
100
AcDbLine
 10
392.5815509089
 20
90.3814965665
 30
0.0
 11
386.3943665735
 21
114.1626671499
 31
0.0
  0
LINE
  5
49D
330
1F
100
AcDbEntity
  8
0
  6
Continuous
 62
     7
370
    25
100
AcDbLine
 10
379.8536288476
 20
122.8379985885
 30
0.0
 11
380.9142890193
 21
123.4503046724
 31
0.0
  0
LINE
  5
49E
330
1F
100
AcDbEntity
  8
0
  6
Continuous
 62
     7
370
    25
100
AcDbLine
 10
386.3943665735
 20
114.1626671499
 30
0.0
 11
380.9142890193
 21
123.4503046724
 31
0.0
  0
LINE
  5
49F
330
1F
100
AcDbEntity
  8
0
  6
Continuous
 62
     7
370
    25
100
AcDbLine
 10
378.4394152852
 20
123.6544067003
 30
0.0
 11
379.500075457
 21
124.2667127842
 31
0.0
  0
LINE
  5
4A0
330
1F
100
AcDbEntity
  8
0
  6
Continuous
 62
     7
370
    25
100
AcDbLine
 10
380.9142890193
 20
123.4503046724
 30
0.0
 11
379.500075457
 21
124.2667127842
 31
0.0
  0
LWPOLYLINE
  5
4A1
330
1F
100
AcDbEntity
  8
0
  6
Continuous
 62
     7
370
    25
100
AcDbPolyline
 90
        3
 70
   128
 43
0.0
 10
378.0858618946
 20
116.5094423712
 10
378.3617612739
 20
116.3815482553
 10
378.4032811107
 20
116.3678669744
  0
LINE
  5
4A2
330
1F
100
AcDbEntity
  8
0
  6
Continuous
 62
     7
370
    25
100
AcDbLine
 10
378.0858618946
 20
116.5094423712
 30
0.0
 11
376.4852263713
 21
117.4334695904
 31
0.0
  0
ARC
  5
4A3
330
1F
100
AcDbEntity
  8
0
  6
Continuous
 62
     7
370
    25
100
AcDbCircle
 10
376.1213918391
 20
116.945751482
 30
0.0
 40
0.6084772140770458
100
AcDbArc
 50
53.2773011525
 51
115.4122404184
  0
LINE
  5
4A4
330
1F
100
AcDbEntity
  8
0
  6
Continuous
 62
     7
370
    25
100
AcDbLine
 10
376.2120241511
 20
106.5678849146
 30
0.0
 11
338.3189815207
 21
128.4430727986
 31
0.0
  0
LINE
  5
4A5
330
1F
100
AcDbEntity
  8
0
  6
Continuous
 62
     7
370
    25
100
AcDbLine
 10
334.245241461
 20
149.1671601948
 30
0.0
 11
335.3059016328
 21
149.7794662787
 31
0.0
  0
LINE
  5
4A6
330
1F
100
AcDbEntity
  8
0
  6
Continuous
 62
     7
370
    25
100
AcDbLine
 10
332.8310278987
 20
149.9835683066
 30
0.0
 11
333.8916880704
 21
150.5958743905
 31
0.0
  0
LINE
  5
4A7
330
1F
100
AcDbEntity
  8
0
  6
Continuous
 62
     7
370
    25
100
AcDbLine
 10
335.3059016328
 20
149.7794662787
 30
0.0
 11
333.8916880704
 21
150.5958743905
 31
0.0
  0
LINE
  5
4A8
330
1F
100
AcDbEntity
  8
0
  6
Continuous
 62
     7
370
    25
100
AcDbLine
 10
335.3059016328
 20
142.8388693776
 30
0.0
 11
335.3059016328
 21
149.7794662787
 31
0.0
  0
LINE
  5
4A9
330
1F
100
AcDbEntity
  8
0
  6
Continuous
 62
     7
370
    25
100
AcDbLine
 10
328.2349774885
 20
147.5334316582
 30
0.0
 11
328.4116105162
 21
147.6353997347
 31
0.0
  0
LINE
  5
4AA
330
1F
100
AcDbEntity
  8
0
  6
Continuous
 62
     7
370
    25
100
AcDbLine
 10
333.8916880704
 20
150.5958743905
 30
0.0
 11
328.4116105162
 21
147.6353997347
 31
0.0
  0
ARC
  5
4AB
330
1F
100
AcDbEntity
  8
0
  6
Continuous
 62
     7
370
    25
100
AcDbCircle
 10
337.4084152686
 20
137.9407656977
 30
0.0
 40
1.776716256381581
100
AcDbArc
 50
350.1532804642
 51
59.1030682137
  0
LINE
  5
4AC
330
1F
100
AcDbEntity
  8
0
  6
Continuous
 62
     7
370
    25
100
AcDbLine
 10
338.3207507185
 20
139.4653524229
 30
0.0
 11
336.7201151952
 21
140.3893796421
 31
0.0
  0
ARC
  5
4AD
330
1F
100
AcDbEntity
  8
0
  6
Continuous
 62
     7
370
    25
100
AcDbCircle
 10
338.3763338355
 20
142.9785910822
 30
0.0
 40
3.073609615143937
100
AcDbArc
 50
182.6054784857
 51
237.39452166
  0
LINE
  5
4AE
330
1F
100
AcDbEntity
  8
0
  6
Continuous
 62
     7
370
    25
100
AcDbLine
 10
336.977849346
 20
131.3685579507
 30
0.0
 11
339.1589583277
 21
137.6369242029
 31
0.0
  0
ARC
  5
4AF
330
1F
100
AcDbEntity
  8
0
  6
Continuous
 62
     7
370
    25
100
AcDbCircle
 10
339.7718707501
 20
130.8792724592
 30
0.0
 40
2.836539423141998
100
AcDbArc
 50
170.0671538107
 51
239.1891948672
  0
LINE
  5
4B0
330
1F
100
AcDbEntity
  8
0
  6
Continuous
 62
     7
370
    25
100
AcDbLine
 10
381.6213958005
 20
123.8585087283
 30
0.0
 11
380.2071822382
 21
124.6749168401
 31
0.0
  0
LINE
  5
4B1
330
1F
100
AcDbEntity
  8
0
  6
Continuous
 62
     7
370
    25
100
AcDbLine
 10
387.1014733547
 20
114.5708712058
 30
0.0
 11
381.6213958005
 21
123.8585087283
 31
0.0
  0
LINE
  5
4B2
330
1F
100
AcDbEntity
  8
0
  6
Continuous
 62
     7
370
    25
100
AcDbLine
 10
393.2886576901
 20
90.7897006224
 30
0.0
 11
387.1014733547
 21
114.5708712058
 31
0.0
  0
LINE
  5
4B3
330
1F
100
AcDbEntity
  8
0
  6
Continuous
 62
     7
370
    25
100
AcDbLine
 10
392.3316042897
 20
91.3421957903
 30
0.0
 11
393.2886576901
 21
90.7897006224
 31
0.0
  0
LINE
  5
4B4
330
1F
100
AcDbEntity
  8
0
  6
Continuous
 62
     7
370
    25
100
AcDbLine
 10
329.1187172974
 20
148.0436037906
 30
0.0
 11
329.1065211339
 21
148.0108077926
 31
0.0
  0
LINE
  5
4B5
330
1F
100
AcDbEntity
  8
0
  6
Continuous
 62
     7
370
    25
100
AcDbLine
 10
334.5987948516
 20
151.0040784464
 30
0.0
 11
329.1187172974
 21
148.0436037906
 31
0.0
  0
LINE
  5
4B6
330
1F
100
AcDbEntity
  8
0
  6
Continuous
 62
     7
370
    25
100
AcDbLine
 10
336.013008414
 20
150.1876703346
 30
0.0
 11
334.5987948516
 21
151.0040784464
 31
0.0
  0
LINE
  5
4B7
330
1F
100
AcDbEntity
  8
0
  6
Continuous
 62
     7
370
    25
100
AcDbLine
 10
336.013008414
 20
145.0842902603
 30
0.0
 11
336.013008414
 21
150.1876703346
 31
0.0
  0
LINE
  5
4B8
330
1F
100
AcDbEntity
  8
0
  6
Continuous
 62
     7
370
    25
100
AcDbLine
 10
380.2071822382
 20
124.6749168401
 30
0.0
 11
380.2071822382
 21
123.8585087283
 31
0.0
  0
LINE
  5
4B9
330
1F
100
AcDbEntity
  8
0
  6
Continuous
 62
     7
370
    25
100
AcDbLine
 10
393.2886576901
 20
90.7897006224
 30
0.0
 11
394.3493178619
 21
91.4020067063
 31
0.0
  0
LINE
  5
4BA
330
1F
100
AcDbEntity
  8
0
  6
Continuous
 62
     7
370
    25
100
AcDbLine
 10
387.1014733547
 20
114.5708712058
 30
0.0
 11
388.1621335265
 21
115.1831772897
 31
0.0
  0
LINE
  5
4BB
330
1F
100
AcDbEntity
  8
0
  6
Continuous
 62
     7
370
    25
100
AcDbLine
 10
394.3493178619
 20
91.4020067063
 30
0.0
 11
388.1621335265
 21
115.1831772897
 31
0.0
  0
LINE
  5
4BC
330
1F
100
AcDbEntity
  8
0
  6
Continuous
 62
     7
370
    25
100
AcDbLine
 10
381.6213958005
 20
123.8585087283
 30
0.0
 11
382.6820559723
 21
124.4708148122
 31
0.0
  0
LINE
  5
4BD
330
1F
100
AcDbEntity
  8
0
  6
Continuous
 62
     7
370
    25
100
AcDbLine
 10
388.1621335265
 20
115.1831772897
 30
0.0
 11
382.6820559723
 21
124.4708148122
 31
0.0
  0
LINE
  5
4BE
330
1F
100
AcDbEntity
  8
0
  6
Continuous
 62
     7
370
    25
100
AcDbLine
 10
380.2071822382
 20
124.6749168401
 30
0.0
 11
381.2678424099
 21
125.287222924
 31
0.0
  0
LINE
  5
4BF
330
1F
100
AcDbEntity
  8
0
  6
Continuous
 62
     7
370
    25
100
AcDbLine
 10
382.6820559723
 20
124.4708148122
 30
0.0
 11
381.2678424099
 21
125.287222924
 31
0.0
  0
LINE
  5
4C0
330
1F
100
AcDbEntity
  8
0
  6
Continuous
 62
     7
370
    25
100
AcDbLine
 10
375.6034320967
 20
108.9602379088
 30
0.0
 11
340.0867484736
 21
129.4635829384
 31
0.0
  0
LINE
  5
4C1
330
1F
100
AcDbEntity
  8
0
  6
Continuous
 62
     7
370
    25
100
AcDbLine
 10
336.013008414
 20
150.1876703346
 30
0.0
 11
337.0736685858
 21
150.7999764185
 31
0.0
  0
LINE
  5
4C2
330
1F
100
AcDbEntity
  8
0
  6
Continuous
 62
     7
370
    25
100
AcDbLine
 10
337.0736685858
 20
144.4719841764
 30
0.0
 11
337.0736685858
 21
150.7999764185
 31
0.0
  0
LINE
  5
4C3
330
1F
100
AcDbEntity
  8
0
  6
Continuous
 62
     7
370
    25
100
AcDbLine
 10
334.5987948516
 20
151.0040784464
 30
0.0
 11
335.6594550234
 21
151.6163845303
 31
0.0
  0
LINE
  5
4C4
330
1F
100
AcDbEntity
  8
0
  6
Continuous
 62
     7
370
    25
100
AcDbLine
 10
337.0736685858
 20
150.7999764185
 30
0.0
 11
335.6594550234
 21
151.6163845303
 31
0.0
  0
LINE
  5
4C5
330
1F
100
AcDbEntity
  8
0
  6
Continuous
 62
     7
370
    25
100
AcDbLine
 10
329.1187172974
 20
148.0436037906
 30
0.0
 11
330.1793774692
 21
148.6559098744
 31
0.0
  0
LINE
  5
4C6
330
1F
100
AcDbEntity
  8
0
  6
Continuous
 62
     7
370
    25
100
AcDbLine
 10
335.6594550234
 20
151.6163845303
 30
0.0
 11
330.1793774692
 21
148.6559098744
 31
0.0
  0
ARC
  5
4C7
330
1F
100
AcDbEntity
  8
0
  6
Continuous
 62
     7
370
    25
100
AcDbCircle
 10
339.1684008661
 20
138.9569902835
 30
0.0
 40
1.783658742206077
100
AcDbArc
 50
350.3316619638
 51
52.4422559866
  0
LINE
  5
4C8
330
1F
100
AcDbEntity
  8
0
  6
Continuous
 62
     7
370
    25
100
AcDbLine
 10
338.7456162989
 20
132.3890680904
 30
0.0
 11
340.9267252807
 21
138.6574343427
 31
0.0
  0
ARC
  5
4C9
330
1F
100
AcDbEntity
  8
0
  6
Continuous
 62
     7
370
    25
100
AcDbCircle
 10
341.5396377031
 20
131.8997825989
 30
0.0
 40
2.836539423141999
100
AcDbArc
 50
170.0671538107
 51
239.1891948672
  0
LINE
  5
4CA
330
1F
100
AcDbEntity
  8
0
  6
Continuous
 62
     7
370
    25
100
AcDbLine
 10
387.2487872675
 20
116.7311168768
 30
0.0
 11
387.8085801359
 21
116.4079553325
 31
0.0
  0
LINE
  5
4CB
330
1F
100
AcDbEntity
  8
0
  6
Continuous
 62
     7
370
    25
100
AcDbLine
 10
387.8085801359
 20
116.4079553325
 30
0.0
 11
388.1025111122
 21
115.2842253801
 31
0.0
  0
LINE
  5
4CC
330
1F
100
AcDbEntity
  8
0
  6
Continuous
 62
     7
370
    25
100
AcDbLine
 10
330.2389998835
 20
148.6881193906
 30
0.0
 11
330.5329308598
 21
149.4724838613
 31
0.0
  0
LINE
  5
4CD
330
1F
100
AcDbEntity
  8
0
  6
Continuous
 62
     7
370
    25
100
AcDbLine
 10
330.5329308598
 20
149.4724838613
 30
0.0
 11
331.0927237282
 21
149.1493223171
 31
0.0
  0
LINE
  5
4CE
330
1F
100
AcDbEntity
  8
0
  6
Continuous
 62
     7
370
    25
100
AcDbLine
 10
387.8085801359
 20
116.4079553325
 30
0.0
 11
388.5156869171
 21
116.8161593884
 31
0.0
  0
LINE
  5
4CF
330
1F
100
AcDbEntity
  8
0
  6
Continuous
 62
     7
370
    25
100
AcDbLine
 10
388.5156869171
 20
116.8161593884
 30
0.0
 11
394.7122057419
 21
93.126196897
 31
0.0
  0
LINE
  5
4D0
330
1F
100
AcDbEntity
  8
0
  6
Continuous
 62
     7
370
    25
100
AcDbLine
 10
394.7122057419
 20
93.126196897
 30
0.0
 11
394.0066958487
 21
92.718914705
 31
0.0
  0
LINE
  5
4D1
330
1F
100
AcDbEntity
  8
0
  6
Continuous
 62
     7
370
    25
100
AcDbLine
 10
386.5182290062
 20
117.9692672958
 30
0.0
 11
388.5156869171
 21
116.8161593884
 31
0.0
  0
SPLINE
  5
4D2
330
1F
100
AcDbEntity
  8
0
  6
Continuous
 62
     7
370
    25
100
AcDbSpline
210
0.0
220
0.0
230
1.0
 70
     8
 71
     3
 72
    12
 73
     8
 74
     0
 42
0.000000001
 43
0.00000001
 40
0.0
 40
0.0
 40
0.0
 40
0.0
 40
0.2335879420900815
 40
0.4537901450808389
 40
0.6739877272615066
 40
0.894185218480903
 40
1.0
 40
1.0
 40
1.0
 40
1.0
 10
394.0050989607161
 20
92.71799284113386
 30
0.0
 10
394.0445819419712
 20
92.57306760270646
 30
0.0
 10
394.1212853352699
 20
92.29152205552029
 30
0.0
 10
394.3839450664518
 20
92.01026383176243
 30
0.0
 10
394.7209562771739
 20
91.8705038418323
 30
0.0
 10
395.0496580406754
 20
91.87587642598989
 30
0.0
 10
395.2513789196572
 20
91.9398033594296
 30
0.0
 10
395.3168520705849
 20
91.96055231602037
 30
0.0
  0
SPLINE
  5
4D3
330
1F
100
AcDbEntity
  8
0
  6
Continuous
 62
     7
370
    25
100
AcDbSpline
210
0.0
220
0.0
230
1.0
 70
     8
 71
     3
 72
    11
 73
     7
 74
     0
 42
0.000000001
 43
0.00000001
 40
0.0
 40
0.0
 40
0.0
 40
0.0
 40
0.2472454926703005
 40
0.5282132489579687
 40
0.8093312418985484
 40
1.0
 40
1.0
 40
1.0
 40
1.0
 10
394.7122057419026
 20
93.12619689704522
 30
0.0
 10
394.744411901827
 20
93.07310561956388
 30
0.0
 10
394.8132168785585
 20
92.95968184844926
 30
0.0
 10
394.973489012518
 20
92.83834995479077
 30
0.0
 10
395.1508008463175
 20
92.77803722056318
 30
0.0
 10
395.2690590033143
 20
92.77736485781395
 30
0.0
 10
395.3168520705849
 20
92.7770931279061
 30
0.0
  0
LINE
  5
4D4
330
1F
100
AcDbEntity
  8
0
  6
Continuous
 62
     7
370
    25
100
AcDbLine
 10
395.3168520706
 20
92.7770931279
 30
0.0
 11
395.3168520706
 21
91.960552316
 31
0.0
  0
LINE
  5
4D5
330
1F
100
AcDbEntity
  8
0
  6
Continuous
 62
     7
370
    25
100
AcDbLine
 10
342.55374614
 20
133.1410041233
 30
0.0
 11
342.3769694447
 21
128.3446064664
 31
0.0
  0
LINE
  5
4D6
330
1F
100
AcDbEntity
  8
0
  6
Continuous
 62
     7
370
    25
100
AcDbLine
 10
375.5428597632
 20
109.1983455251
 30
0.0
 11
342.3769694447
 21
128.3446064664
 31
0.0
  0
LINE
  5
4D7
330
1F
100
AcDbEntity
  8
0
  6
Continuous
 62
     7
370
    25
100
AcDbLine
 10
394.8796479478
 20
102.9339039859
 30
0.0
 11
392.1555823302
 21
102.900445058
 31
0.0
  0
LINE
  5
4D8
330
1F
100
AcDbEntity
  8
0
  6
Continuous
 62
     7
370
    25
100
AcDbLine
 10
394.8796479478
 20
102.9339039859
 30
0.0
 11
403.1881526267
 21
98.1375063289
 31
0.0
  0
ARC
  5
4D9
330
1F
100
AcDbEntity
  8
0
  6
Continuous
 62
     7
370
    25
100
AcDbCircle
 10
403.0332255999
 20
97.729302273
 30
0.0
 40
0.4366153168342384
100
AcDbArc
 50
290.7834207995
 51
69.2165792005
  0
LINE
  5
4DA
330
1F
100
AcDbEntity
  8
0
  6
Continuous
 62
     7
370
    25
100
AcDbLine
 10
403.1881526267
 20
97.3210982171
 30
0.0
 11
395.3168520706
 21
92.7770931279
 31
0.0
  0
LINE
  5
4DB
330
1F
100
AcDbEntity
  8
0
  6
Continuous
 62
     7
370
    25
100
AcDbLine
 10
339.9702241078
 20
134.6324396464
 30
0.0
 11
342.55374614
 21
133.1410041233
 31
0.0
  0
ARC
  5
4DC
330
1F
100
AcDbEntity
  8
0
  6
Continuous
 62
     7
370
    25
100
AcDbCircle
 10
394.430525821
 20
96.9827421471
 30
0.0
 40
4.057185369575039
100
AcDbArc
 50
62.6601126049
 51
114.642219198
  0
LINE
  5
4DD
330
1F
100
AcDbEntity
  8
0
  6
Continuous
 62
     7
370
    25
100
AcDbLine
 10
393.4529058141
 20
97.9406368912
 30
0.0
 11
395.2332013384
 21
96.9128941612
 31
0.0
  0
LWPOLYLINE
  5
4DE
330
1F
100
AcDbEntity
  8
0
  6
Continuous
 62
     7
370
    25
100
AcDbPolyline
 90
       19
 70
   128
 43
0.0
 10
395.2332013384
 20
96.9128941612
 10
395.5837184936
 20
96.743102983
 10
395.9799837019
 20
96.6110288923
 10
396.4099566456
 20
96.5206848934
 10
396.8605728143
 20
96.4748160431
 10
397.3181404637
 20
96.4748160431
 10
397.7687566324
 20
96.5206848934
 10
398.1987295761
 20
96.6110288923
 10
398.5949947844
 20
96.743102983
 10
398.9455119396
 20
96.9128941612
 10
399.2396307552
 20
97.1152434078
 10
399.46841458
 20
97.3440024433
 10
399.624911933
 20
97.5922205402
 10
399.7043677215
 20
97.8523557172
 10
399.7043677215
 20
98.1165038987
 10
399.624911933
 20
98.3766390757
 10
399.46841458
 20
98.6248571726
 10
399.2396307552
 20
98.8536162081
 10
398.9455119396
 20
99.0559654547
  0
LINE
  5
4DF
330
1F
100
AcDbEntity
  8
0
  6
Continuous
 62
     7
370
    25
100
AcDbLine
 10
396.2938615102
 20
100.5867306644
 30
0.0
 11
398.9455119396
 21
99.0559654547
 31
0.0
  0
LINE
  5
4E0
330
1F
100
AcDbEntity
  8
0
  6
Continuous
 62
     7
370
    25
100
AcDbLine
 10
403.1881526267
 20
96.5045574052
 30
0.0
 11
395.3168520706
 21
91.960552316
 31
0.0
  0
ARC
  5
4E1
330
1F
100
AcDbEntity
  8
0
  6
Continuous
 62
     7
370
    25
100
AcDbCircle
 10
398.1928131583
 20
96.8052259699
 30
0.0
 40
1.619716422368017
100
AcDbArc
 50
28.422405034
 51
62.3085301495
  0
ARC
  5
4E2
330
1F
100
AcDbEntity
  8
0
  6
Continuous
 62
     7
370
    25
100
AcDbCircle
 10
402.980588783
 20
96.962667838
 30
0.0
 40
0.5029392784936937
100
AcDbArc
 50
294.3746582936
 51
354.3052007488
  0
ARC
  5
4E3
330
1F
100
AcDbEntity
  8
0
  6
Continuous
 62
     7
370
    25
100
AcDbCircle
 10
394.424844141
 20
96.1298362343
 30
0.0
 40
4.092114415713848
100
AcDbArc
 50
62.8232907077
 51
111.423768103
  0
LINE
  5
4E4
330
1F
100
AcDbEntity
  8
0
  6
Continuous
 62
     7
370
    25
100
AcDbLine
 10
396.2938615102
 20
99.7701898525
 30
0.0
 11
398.9455119396
 21
98.2394246428
 31
0.0
  0
ARC
  5
4E5
330
1F
100
AcDbEntity
  8
0
  6
Continuous
 62
     7
370
    25
100
AcDbCircle
 10
340.0183664972
 20
138.8899243166
 30
0.0
 40
1.417266137647634
100
AcDbArc
 50
349.7873124506
 51
59.1751517324
  0
LINE
  5
4E6
330
1F
100
AcDbEntity
  8
0
  6
Continuous
 62
     7
370
    25
100
AcDbLine
 10
340.2556491011
 20
140.389246942
 30
0.0
 11
340.7445953984
 21
140.1069842527
 31
0.0
  0
LINE
  5
4E7
330
1F
100
AcDbEntity
  8
0
  6
Continuous
 62
     7
370
    25
100
AcDbLine
 10
341.413177995
 20
138.6386392381
 30
0.0
 11
338.7638450849
 21
131.2830636256
 31
0.0
  0
LINE
  5
4E8
330
1F
100
AcDbEntity
  8
0
  6
Continuous
 62
     7
370
    25
100
AcDbLine
 10
330.5329308598
 20
149.4724838613
 30
0.0
 11
331.240037641
 21
149.8806879173
 31
0.0
  0
LINE
  5
4E9
330
1F
100
AcDbEntity
  8
0
  6
Continuous
 62
     7
370
    25
100
AcDbLine
 10
331.240037641
 20
149.8806879173
 30
0.0
 11
331.8232819896
 21
149.5439881217
 31
0.0
  0
LINE
  5
4EA
330
1F
100
AcDbEntity
  8
0
  6
Continuous
 62
     7
370
    25
100
AcDbLine
 10
342.55374614
 20
133.1410041233
 30
0.0
 11
342.55374614
 21
132.3244633114
 31
0.0
  0
LINE
  5
4EB
330
1F
100
AcDbEntity
  8
0
  6
Continuous
 62
     7
370
    25
100
AcDbLine
 10
342.55374614
 20
132.3244633114
 30
0.0
 11
342.4064370161
 21
128.3275951994
 31
0.0
  0
LINE
  5
4EC
330
1F
100
AcDbEntity
  8
0
  6
Continuous
 62
     7
370
    25
100
AcDbLine
 10
390.4695650548
 20
90.6769725616
 30
0.0
 11
384.27304623
 21
114.366935053
 31
0.0
  0
LINE
  5
4ED
330
1F
100
AcDbEntity
  8
0
  6
Continuous
 62
     7
370
    25
100
AcDbLine
 10
326.9973969539
 20
147.4314635818
 30
0.0
 11
320.8008781291
 21
130.8958494409
 31
0.0
  0
LINE
  5
4EE
330
1F
100
AcDbEntity
  8
0
  6
Continuous
 62
     7
370
    25
100
AcDbLine
 10
332.1239211175
 20
144.4719841764
 30
0.0
 11
326.9973969539
 21
147.4314635818
 31
0.0
  0
ARC
  5
4EF
330
1F
100
AcDbEntity
  8
0
  6
Continuous
 62
     7
370
    25
100
AcDbCircle
 10
331.2958117973
 20
143.1773784564
 30
0.0
 40
1.536804807571962
100
AcDbArc
 50
2.6054784857
 51
57.39452166
  0
LINE
  5
4F0
330
1F
100
AcDbEntity
  8
0
  6
Continuous
 62
     7
370
    25
100
AcDbLine
 10
332.8310278987
 20
141.4100224819
 30
0.0
 11
332.8310278987
 21
143.2472393086
 31
0.0
  0
ARC
  5
4F1
330
1F
100
AcDbEntity
  8
0
  6
Continuous
 62
     7
370
    25
100
AcDbCircle
 10
335.9014601014
 20
141.5497441864
 30
0.0
 40
3.073609615144346
100
AcDbArc
 50
182.6054784857
 51
237.39452166
  0
LINE
  5
4F2
330
1F
100
AcDbEntity
  8
0
  6
Continuous
 62
     7
370
    25
100
AcDbLine
 10
336.5019547113
 20
137.6577599172
 30
0.0
 11
334.245241461
 21
138.9605327463
 31
0.0
  0
ARC
  5
4F3
330
1F
100
AcDbEntity
  8
0
  6
Continuous
 62
     7
370
    25
100
AcDbCircle
 10
335.7757258101
 20
136.4406999811
 30
0.0
 40
1.417266137647663
100
AcDbArc
 50
349.7873124506
 51
59.1751517324
  0
LINE
  5
4F4
330
1F
100
AcDbEntity
  8
0
  6
Continuous
 62
     7
370
    25
100
AcDbLine
 10
334.2063505881
 20
127.9596830089
 30
0.0
 11
337.1705373079
 21
136.1894149027
 31
0.0
  0
LINE
  5
4F5
330
1F
100
AcDbEntity
  8
0
  6
Continuous
 62
     7
370
    25
100
AcDbLine
 10
375.6918853021
 20
104.0105935892
 30
0.0
 11
334.2063505881
 21
127.9596830089
 31
0.0
  0
LINE
  5
4F6
330
1F
100
AcDbEntity
  8
0
  6
Continuous
 62
     7
370
    25
100
AcDbLine
 10
374.099905876
 20
114.8705442132
 30
0.0
 11
376.3566512233
 21
105.99936121
 31
0.0
  0
LWPOLYLINE
  5
4F7
330
1F
100
AcDbEntity
  8
0
  6
Continuous
 62
     7
370
    25
100
AcDbPolyline
 90
        9
 70
   128
 43
0.0
 10
374.7684884725
 20
115.5669601927
 10
374.6019180231
 20
115.6401404263
 10
374.4447227222
 20
115.6632441486
 10
374.3057500534
 20
115.6349710038
 10
374.1928218688
 20
115.5569123004
 10
374.1122941488
 20
115.4334614461
 10
374.0686992659
 20
115.271566673
 10
374.0644908877
 20
115.0803399666
 10
374.099905876
 20
114.8705442132
  0
LINE
  5
4F8
330
1F
100
AcDbEntity
  8
0
  6
Continuous
 62
     7
370
    25
100
AcDbLine
 10
377.0252017228
 20
114.2641873637
 30
0.0
 11
374.7684884725
 21
115.5669601927
 31
0.0
  0
ARC
  5
4F9
330
1F
100
AcDbEntity
  8
0
  6
Continuous
 62
     7
370
    25
100
AcDbCircle
 10
377.5772665503
 20
114.9410064818
 30
0.0
 40
0.8734183948569356
100
AcDbArc
 50
230.7967147643
 51
9.2140369905
  0
LINE
  5
4FA
330
1F
100
AcDbEntity
  8
0
  6
Continuous
 62
     7
370
    25
100
AcDbLine
 10
378.4394152852
 20
116.9180777024
 30
0.0
 11
378.4394152852
 21
115.0808608756
 31
0.0
  0
ARC
  5
4FB
330
1F
100
AcDbEntity
  8
0
  6
Continuous
 62
     7
370
    25
100
AcDbCircle
 10
378.8704896526
 20
116.9880048993
 30
0.0
 40
0.4367091974286301
100
AcDbArc
 50
50.7967147643
 51
189.2140369904
  0
LINE
  5
4FC
330
1F
100
AcDbEntity
  8
0
  6
Continuous
 62
     7
370
    25
100
AcDbLine
 10
384.27304623
 20
114.366935053
 30
0.0
 11
379.1465220664
 21
117.3264144583
 31
0.0
  0
LINE
  5
4FD
330
1F
100
AcDbEntity
  8
0
  6
Continuous
 62
     7
370
    25
100
AcDbLine
 10
384.9801530112
 20
114.7751391089
 30
0.0
 11
384.27304623
 21
114.366935053
 31
0.0
  0
LINE
  5
4FE
330
1F
100
AcDbEntity
  8
0
  6
Continuous
 62
     7
370
    25
100
AcDbLine
 10
391.176671836
 20
91.0851766175
 30
0.0
 11
384.9801530112
 21
114.7751391089
 31
0.0
  0
LINE
  5
4FF
330
1F
100
AcDbEntity
  8
0
  6
Continuous
 62
     7
370
    25
100
AcDbLine
 10
390.4695650548
 20
90.6769725616
 30
0.0
 11
391.176671836
 21
91.0851766175
 31
0.0
  0
LINE
  5
500
330
1F
100
AcDbEntity
  8
0
  6
Continuous
 62
     7
370
    25
100
AcDbLine
 10
384.9801530112
 20
114.7751391089
 30
0.0
 11
379.8536288476
 21
117.7346185142
 31
0.0
  0
LINE
  5
501
330
1F
100
AcDbEntity
  8
0
  6
Continuous
 62
     7
370
    25
100
AcDbLine
 10
372.959337731
 20
90.2795782526
 30
0.0
 11
373.1361144263
 21
95.0759759096
 31
0.0
  0
LINE
  5
502
330
1F
100
AcDbEntity
  8
0
  6
Continuous
 62
     7
370
    25
100
AcDbLine
 10
328.9419406021
 20
120.588729404
 30
0.0
 11
373.1361144263
 21
95.0759759096
 31
0.0
  0
LINE
  5
503
330
1F
100
AcDbEntity
  8
0
  6
Continuous
 62
     7
370
    25
100
AcDbLine
 10
320.6334359232
 20
120.4866783901
 30
0.0
 11
328.9419406021
 21
120.588729404
 31
0.0
  0
LINE
  5
504
330
1F
100
AcDbEntity
  8
0
  6
Continuous
 62
     7
370
    25
100
AcDbLine
 10
320.6334359232
 20
120.4866783901
 30
0.0
 11
312.3249312442
 21
125.283076047
 31
0.0
  0
ARC
  5
505
330
1F
100
AcDbEntity
  8
0
  6
Continuous
 62
     7
370
    25
100
AcDbCircle
 10
312.479858271
 20
125.6912801029
 30
0.0
 40
0.4366153168342251
100
AcDbArc
 50
110.7834207995
 51
249.2165792005
  0
LINE
  5
506
330
1F
100
AcDbEntity
  8
0
  6
Continuous
 62
     7
370
    25
100
AcDbLine
 10
312.3249312442
 20
126.0994841588
 30
0.0
 11
320.1962318004
 21
130.643489248
 31
0.0
  0
LINE
  5
507
330
1F
100
AcDbEntity
  8
0
  6
Continuous
 62
     7
370
    25
100
AcDbLine
 10
390.5533565284
 20
90.0271856849
 30
0.0
 11
382.6820559723
 21
85.4831805957
 31
0.0
  0
ARC
  5
508
330
1F
100
AcDbEntity
  8
0
  6
Continuous
 62
     7
370
    25
100
AcDbCircle
 10
381.9749491911
 20
86.8478916806
 30
0.0
 40
1.537021907911997
100
AcDbArc
 50
242.6096722366
 51
297.3903277634
  0
LINE
  5
509
330
1F
100
AcDbEntity
  8
0
  6
Continuous
 62
     7
370
    25
100
AcDbLine
 10
381.2678424099
 20
85.4831805957
 30
0.0
 11
372.959337731
 21
90.2795782526
 31
0.0
  0
LWPOLYLINE
  5
50A
330
1F
100
AcDbEntity
  8
0
  6
Continuous
 62
     7
370
    25
100
AcDbPolyline
 90
       19
 70
   128
 43
0.0
 10
377.0252017228
 20
89.4631701408
 10
376.7310829072
 20
89.6655193874
 10
376.5022990825
 20
89.8942784229
 10
376.3458017294
 20
90.1424965198
 10
376.2663459409
 20
90.4026316968
 10
376.2663459409
 20
90.6667798783
 10
376.3458017294
 20
90.9269150553
 10
376.5022990825
 20
91.1751331523
 10
376.7310829072
 20
91.4038921878
 10
377.0252017228
 20
91.6062414343
 10
377.375718878
 20
91.7760326125
 10
377.7719840864
 20
91.9081067032
 10
378.20195703
 20
91.9984507021
 10
378.6525731987
 20
92.0443195525
 10
379.1101408481
 20
92.0443195525
 10
379.5607570168
 20
91.9984507021
 10
379.9907299605
 20
91.9081067032
 10
380.3869951689
 20
91.7760326125
 10
380.737512324
 20
91.6062414343
  0
LINE
  5
50B
330
1F
100
AcDbEntity
  8
0
  6
Continuous
 62
     7
370
    25
100
AcDbLine
 10
377.0252017228
 20
89.4631701408
 30
0.0
 11
379.6768521523
 21
87.9324049311
 31
0.0
  0
LWPOLYLINE
  5
50C
330
1F
100
AcDbEntity
  8
0
  6
Continuous
 62
     7
370
    25
100
AcDbPolyline
 90
       19
 70
   128
 43
0.0
 10
383.3891627535
 20
90.0754762247
 10
383.6832815691
 20
89.8731269781
 10
383.9120653939
 20
89.6443679426
 10
384.0685627469
 20
89.3961498457
 10
384.1480185354
 20
89.1360146686
 10
384.1480185354
 20
88.8718664872
 10
384.0685627469
 20
88.6117313101
 10
383.9120653939
 20
88.3635132132
 10
383.6832815691
 20
88.1347541777
 10
383.3891627535
 20
87.9324049311
 10
383.0386455983
 20
87.762613753
 10
382.64238039
 20
87.6305396622
 10
382.2124074463
 20
87.5401956634
 10
381.7617912776
 20
87.494326813
 10
381.3042236282
 20
87.494326813
 10
380.8536074595
 20
87.5401956634
 10
380.4236345158
 20
87.6305396622
 10
380.0273693075
 20
87.762613753
 10
379.6768521523
 20
87.9324049311
  0
LINE
  5
50D
330
1F
100
AcDbEntity
  8
0
  6
Continuous
 62
     7
370
    25
100
AcDbLine
 10
380.737512324
 20
91.6062414343
 30
0.0
 11
383.3891627535
 21
90.0754762247
 31
0.0
  0
LWPOLYLINE
  5
50E
330
1F
100
AcDbEntity
  8
0
  6
Continuous
 62
     7
370
    25
100
AcDbPolyline
 90
       19
 70
   128
 43
0.0
 10
319.2192223608
 20
122.8338517116
 10
319.569739516
 20
122.6640605334
 10
319.9660047244
 20
122.5319864427
 10
320.395977668
 20
122.4416424438
 10
320.8465938367
 20
122.3957735934
 10
321.3041614861
 20
122.3957735934
 10
321.7547776548
 20
122.4416424438
 10
322.1847505985
 20
122.5319864427
 10
322.5810158069
 20
122.6640605334
 10
322.931532962
 20
122.8338517116
 10
323.2256517777
 20
123.0362009581
 10
323.4544356024
 20
123.2649599936
 10
323.6109329554
 20
123.5131780905
 10
323.6903887439
 20
123.7733132676
 10
323.6903887439
 20
124.0374614491
 10
323.6109329554
 20
124.2975966261
 10
323.4544356024
 20
124.545814723
 10
323.2256517777
 20
124.7745737585
 10
322.931532962
 20
124.9769230051
  0
LINE
  5
50F
330
1F
100
AcDbEntity
  8
0
  6
Continuous
 62
     7
370
    25
100
AcDbLine
 10
322.931532962
 20
124.9769230051
 30
0.0
 11
320.2798825326
 21
126.5076882148
 31
0.0
  0
LWPOLYLINE
  5
510
330
1F
100
AcDbEntity
  8
0
  6
Continuous
 62
     7
370
    25
100
AcDbPolyline
 90
       19
 70
   128
 43
0.0
 10
320.2798825326
 20
126.5076882148
 10
319.9293653774
 20
126.6774793929
 10
319.5331001691
 20
126.8095534837
 10
319.1031272254
 20
126.8998974825
 10
318.6525110567
 20
126.9457663329
 10
318.1949434073
 20
126.9457663329
 10
317.7443272386
 20
126.8998974825
 10
317.3143542949
 20
126.8095534837
 10
316.9180890866
 20
126.6774793929
 10
316.5675719314
 20
126.5076882148
 10
316.2734531157
 20
126.3053389682
 10
316.044669291
 20
126.0765799327
 10
315.888171938
 20
125.8283618358
 10
315.8087161495
 20
125.5682266587
 10
315.8087161495
 20
125.3040784773
 10
315.888171938
 20
125.0439433002
 10
316.044669291
 20
124.7957252033
 10
316.2734531157
 20
124.5669661678
 10
316.5675719314
 20
124.3646169212
  0
LINE
  5
511
330
1F
100
AcDbEntity
  8
0
  6
Continuous
 62
     7
370
    25
100
AcDbLine
 10
319.2192223608
 20
122.8338517116
 30
0.0
 11
316.5675719314
 21
124.3646169212
 31
0.0
  0
ARC
  5
512
330
1F
100
AcDbEntity
  8
0
  6
Continuous
 62
     7
370
    25
100
AcDbCircle
 10
381.9749491911
 20
86.0313508687
 30
0.0
 40
1.537021907910937
100
AcDbArc
 50
242.6096722366
 51
297.3903277634
  0
LINE
  5
513
330
1F
100
AcDbEntity
  8
0
  6
Continuous
 62
     7
370
    25
100
AcDbLine
 10
390.5533565284
 20
90.0271856849
 30
0.0
 11
390.5533565284
 21
89.210644873
 31
0.0
  0
LINE
  5
514
330
1F
100
AcDbEntity
  8
0
  6
Continuous
 62
     7
370
    25
100
AcDbLine
 10
390.5533565284
 20
89.210644873
 30
0.0
 11
382.6820559723
 21
84.6666397838
 31
0.0
  0
LINE
  5
515
330
1F
100
AcDbEntity
  8
0
  6
Continuous
 62
     7
370
    25
100
AcDbLine
 10
372.959337731
 20
90.2795782526
 30
0.0
 11
372.959337731
 21
89.4630374407
 31
0.0
  0
LINE
  5
516
330
1F
100
AcDbEntity
  8
0
  6
Continuous
 62
     7
370
    25
100
AcDbLine
 10
381.2678424099
 20
84.6666397838
 30
0.0
 11
372.959337731
 21
89.4630374407
 31
0.0
  0
ARC
  5
517
330
1F
100
AcDbEntity
  8
0
  6
Continuous
 62
     7
370
    25
100
AcDbCircle
 10
379.5607087927
 20
117.3257371851
 30
0.0
 40
0.5029772359008494
100
AcDbArc
 50
54.3824225247
 51
114.3071190462
  0
ARC
  5
518
330
1F
100
AcDbEntity
  8
0
  6
Continuous
 62
     7
370
    25
100
AcDbCircle
 10
382.6364639722
 20
87.8247367398
 30
0.0
 40
1.619716422388148
100
AcDbArc
 50
28.4224050355
 51
62.3085301494
  0
ARC
  5
519
330
1F
100
AcDbEntity
  8
0
  6
Continuous
 62
     7
370
    25
100
AcDbCircle
 10
378.4095622386
 20
115.7519663175
 30
0.0
 40
1.274423234718496
100
AcDbArc
 50
237.8985650384
 51
265.7043593161
  0
LWPOLYLINE
  5
51A
330
1F
100
AcDbEntity
  8
0
  6
Continuous
 62
     7
370
    25
100
AcDbPolyline
 90
       13
 70
   128
 43
0.0
 10
376.3534206228
 20
90.1264353816
 10
376.5022990825
 20
90.3585923404
 10
376.7310829072
 20
90.5873513759
 10
377.0252017228
 20
90.7897006224
 10
377.375718878
 20
90.9594918006
 10
377.7719840864
 20
91.0915658913
 10
378.20195703
 20
91.1819098902
 10
378.6525731987
 20
91.2277787406
 10
379.1101408481
 20
91.2277787406
 10
379.5607570168
 20
91.1819098902
 10
379.9907299605
 20
91.0915658913
 10
380.3869951689
 20
90.9594918006
 10
380.737512324
 20
90.7897006224
  0
SPLINE
  5
51B
330
1F
100
AcDbEntity
  8
0
  6
Continuous
 62
     7
370
    25
100
AcDbSpline
210
0.0
220
0.0
230
1.0
 70
     8
 71
     3
 72
    11
 73
     7
 74
     0
 42
0.000000001
 43
0.00000001
 40
0.0
 40
0.0
 40
0.0
 40
0.0
 40
0.2472454926704253
 40
0.5282132489579143
 40
0.809331241898613
 40
0.9999999999999999
 40
0.9999999999999999
 40
0.9999999999999999
 40
0.9999999999999999
 10
390.5533565284435
 20
90.02718568485369
 30
0.0
 10
390.5587305895459
 20
90.06747322806991
 30
0.0
 10
390.5702116897443
 20
90.15354320598911
 30
0.0
 10
390.5695353067508
 20
90.33821164091403
 30
0.0
 10
390.5373824450263
 20
90.52438711340376
 30
0.0
 10
390.4890843393192
 20
90.63305523051719
 30
0.0
 10
390.4695650547833
 20
90.67697256157716
 30
0.0
  0
SPLINE
  5
51C
330
1F
100
AcDbEntity
  8
0
  6
Continuous
 62
     7
370
    25
100
AcDbSpline
210
0.0
220
0.0
230
1.0
 70
     8
 71
     3
 72
    12
 73
     8
 74
     0
 42
0.000000001
 43
0.00000001
 40
0.0
 40
0.0
 40
0.0
 40
0.0
 40
0.2335879420900659
 40
0.4537901450808092
 40
0.6739877272614917
 40
0.894185218480851
 40
1.0
 40
1.0
 40
1.0
 40
1.0
 10
390.5533565284437
 20
89.21064487296796
 30
0.0
 10
390.6449447104926
 20
89.30910605972358
 30
0.0
 10
390.8228726208453
 20
89.50038612248223
 30
0.0
 10
391.0430661147982
 20
89.93079636857117
 30
0.0
 10
391.1810169339958
 20
90.39958756638046
 30
0.0
 10
391.215110193859
 20
90.79883006623822
 30
0.0
 10
391.1860907605183
 20
91.01501033804728
 30
0.0
 10
391.17667183597
 20
91.08517661748851
 30
0.0
  0
SPLINE
  5
51D
330
1F
100
AcDbEntity
  8
0
  6
Continuous
 62
     7
370
    25
100
AcDbSpline
210
0.0
220
0.0
230
1.0
 70
     8
 71
     3
 72
    11
 73
     7
 74
     0
 42
0.000000001
 43
0.00000001
 40
0.0
 40
0.0
 40
0.0
 40
0.0
 40
0.2472454926703005
 40
0.5282132489579687
 40
0.8093312418985484
 40
1.0
 40
1.0
 40
1.0
 40
1.0
 10
320.8008781290644
 20
130.8958494409295
 30
0.0
 10
320.76867196914
 20
130.8710461321588
 30
0.0
 10
320.6998669924087
 20
130.8180565461036
 30
0.0
 10
320.5395948584492
 20
130.726297032494
 30
0.0
 10
320.3622830246497
 20
130.6610497909137
 30
0.0
 10
320.244024867653
 20
130.6485435450487
 30
0.0
 10
320.1962318003822
 20
130.6434892480335
 30
0.0
  0
LINE
  5
51E
330
1F
100
AcDbEntity
  8
0
  6
Continuous
 62
     7
370
    25
100
AcDbLine
 10
380.737512324
 20
90.7897006224
 30
0.0
 11
383.3891627535
 21
89.2589354128
 31
0.0
  0
LINE
  5
51F
330
1F
100
AcDbEntity
  8
0
  6
Continuous
 62
     7
370
    25
100
AcDbLine
 10
377.732308504
 20
114.6723914196
 30
0.0
 11
375.4755952537
 21
115.9751642487
 31
0.0
  0
ARC
  5
520
330
1F
100
AcDbEntity
  8
0
  6
Continuous
 62
     7
370
    25
100
AcDbCircle
 10
375.1845744795
 20
115.5854628939
 30
0.0
 40
0.48637458500365
100
AcDbArc
 50
53.2483981923
 51
115.4411433786
  0
LINE
  5
521
330
1F
100
AcDbEntity
  8
0
  6
Continuous
 62
     7
370
    25
100
AcDbLine
 10
328.9419406021
 20
120.588729404
 30
0.0
 11
328.9419406021
 21
119.7721885922
 31
0.0
  0
LINE
  5
522
330
1F
100
AcDbEntity
  8
0
  6
Continuous
 62
     7
370
    25
100
AcDbLine
 10
328.9419406021
 20
119.7721885922
 30
0.0
 11
373.1066468548
 21
94.2764463646
 31
0.0
  0
LINE
  5
523
330
1F
100
AcDbEntity
  8
0
  6
Continuous
 62
     7
370
    25
100
AcDbLine
 10
334.9134573693
 20
128.3678870648
 30
0.0
 11
334.2063505881
 21
127.9596830089
 31
0.0
  0
LINE
  5
524
330
1F
100
AcDbEntity
  8
0
  6
Continuous
 62
     7
370
    25
100
AcDbLine
 10
375.7074331915
 20
104.8180260955
 30
0.0
 11
334.9134573693
 21
128.3678870648
 31
0.0
  0
ARC
  5
525
330
1F
100
AcDbEntity
  8
0
  6
Continuous
 62
     7
370
    25
100
AcDbCircle
 10
336.4828325913
 20
136.8489040371
 30
0.0
 40
1.417266137647639
100
AcDbArc
 50
349.7873124506
 51
59.1751517324
  0
ARC
  5
526
330
1F
100
AcDbEntity
  8
0
  6
Continuous
 62
     7
370
    25
100
AcDbCircle
 10
332.0029185785
 20
143.5855825123
 30
0.0
 40
1.536804807572119
100
AcDbArc
 50
2.6054784857
 51
57.39452166
  0
LINE
  5
527
330
1F
100
AcDbEntity
  8
0
  6
Continuous
 62
     7
370
    25
100
AcDbLine
 10
337.2090614925
 20
138.0659639731
 30
0.0
 11
334.9523482422
 21
139.3687368022
 31
0.0
  0
LINE
  5
528
330
1F
100
AcDbEntity
  8
0
  6
Continuous
 62
     7
370
    25
100
AcDbLine
 10
334.9134573693
 20
128.3678870648
 30
0.0
 11
337.877644089
 21
136.5976189586
 31
0.0
  0
LINE
  5
529
330
1F
100
AcDbEntity
  8
0
  6
Continuous
 62
     7
370
    25
100
AcDbLine
 10
333.5381346798
 20
141.8182265378
 30
0.0
 11
333.5381346798
 21
143.6554433645
 31
0.0
  0
LINE
  5
52A
330
1F
100
AcDbEntity
  8
0
  6
Continuous
 62
     7
370
    25
100
AcDbLine
 10
327.7045037351
 20
147.8396676377
 30
0.0
 11
326.9973969539
 21
147.4314635818
 31
0.0
  0
LINE
  5
52B
330
1F
100
AcDbEntity
  8
0
  6
Continuous
 62
     7
370
    25
100
AcDbLine
 10
332.8310278987
 20
144.8801882323
 30
0.0
 11
327.7045037351
 21
147.8396676377
 31
0.0
  0
ARC
  5
52C
330
1F
100
AcDbEntity
  8
0
  6
Continuous
 62
     7
370
    25
100
AcDbCircle
 10
336.6085668826
 20
141.9579482423
 30
0.0
 40
3.073609615143961
100
AcDbArc
 50
182.6054784857
 51
237.39452166
  0
LINE
  5
52D
330
1F
100
AcDbEntity
  8
0
  6
Continuous
 62
     7
370
    25
100
AcDbLine
 10
320.6334359232
 20
120.4866783901
 30
0.0
 11
320.6334359232
 21
119.6701375782
 31
0.0
  0
LINE
  5
52E
330
1F
100
AcDbEntity
  8
0
  6
Continuous
 62
     7
370
    25
100
AcDbLine
 10
320.6334359232
 20
119.6701375782
 30
0.0
 11
328.9419406021
 21
119.7721885922
 31
0.0
  0
LINE
  5
52F
330
1F
100
AcDbEntity
  8
0
  6
Continuous
 62
     7
370
    25
100
AcDbLine
 10
320.6334359232
 20
119.6701375782
 30
0.0
 11
312.3249312442
 21
124.4665352351
 31
0.0
  0
ARC
  5
530
330
1F
100
AcDbEntity
  8
0
  6
Continuous
 62
     7
370
    25
100
AcDbCircle
 10
322.1788341808
 20
122.7261835202
 30
0.0
 40
1.619716422370578
100
AcDbArc
 50
28.422405034
 51
62.3085301495
  0
LWPOLYLINE
  5
531
330
1F
100
AcDbEntity
  8
0
  6
Continuous
 62
     7
370
    25
100
AcDbPolyline
 90
       13
 70
   128
 43
0.0
 10
320.2798825326
 20
125.6911474029
 10
319.9293653774
 20
125.860938581
 10
319.5331001691
 20
125.9930126718
 10
319.1031272254
 20
126.0833566706
 10
318.6525110567
 20
126.129225521
 10
318.1949434073
 20
126.129225521
 10
317.7443272386
 20
126.0833566706
 10
317.3143542949
 20
125.9930126718
 10
316.9180890866
 20
125.860938581
 10
316.5675719314
 20
125.6911474029
 10
316.2734531157
 20
125.4887981563
 10
316.044669291
 20
125.2600391208
 10
315.8957908314
 20
125.0278821621
  0
LINE
  5
532
330
1F
100
AcDbEntity
  8
0
  6
Continuous
 62
     7
370
    25
100
AcDbLine
 10
322.931532962
 20
124.1603821932
 30
0.0
 11
320.2798825326
 21
125.6911474029
 31
0.0
  0
ARC
  5
533
330
1F
100
AcDbEntity
  8
0
  6
Continuous
 62
     7
370
    25
100
AcDbCircle
 10
312.5324950879
 20
124.9246456679
 30
0.0
 40
0.5029392784940712
100
AcDbArc
 50
185.6947992512
 51
245.6253417064
  0
LINE
  5
534
330
1F
100
AcDbEntity
  8
0
  6
Continuous
 62
     8
370
    18
100
AcDbLine
 10
375.9546576755
 20
106.7164594184
 30
0.0
 11
376.1461118913
 21
106.8269835846
 31
0.0
  0
LINE
  5
535
330
1F
100
AcDbEntity
  8
0
  6
Continuous
 62
     8
370
    18
100
AcDbLine
 10
339.5584261954
 20
128.5439647299
 30
0.0
 11
338.8513194143
 21
128.135760674
 31
0.0
  0
LINE
  5
536
330
1F
100
AcDbEntity
  8
0
  6
Continuous
 62
     8
370
    18
100
AcDbLine
 10
337.5101872395
 20
131.061245826
 30
0.0
 11
338.2172940207
 21
131.4694498819
 31
0.0
  0
LINE
  5
537
330
1F
100
AcDbEntity
  8
0
  6
Continuous
 62
     8
370
    18
100
AcDbLine
 10
377.0252017228
 20
115.8971362874
 30
0.0
 11
378.0858618946
 21
116.5094423712
 31
0.0
  0
LINE
  5
538
330
1F
100
AcDbEntity
  8
0
  6
Continuous
 62
     8
370
    18
100
AcDbLine
 10
376.4852263713
 20
117.4334695904
 30
0.0
 11
375.4245661995
 21
116.8211635065
 31
0.0
  0
LINE
  5
539
330
1F
100
AcDbEntity
  8
0
  6
Continuous
 62
     8
370
    18
100
AcDbLine
 10
375.4263353973
 20
105.7968412099
 30
0.0
 11
376.2824450848
 21
106.2910628127
 31
0.0
  0
LINE
  5
53A
330
1F
100
AcDbEntity
  8
0
  6
Continuous
 62
     8
370
    18
100
AcDbLine
 10
338.3189815207
 20
128.4430727986
 30
0.0
 11
337.2583213489
 21
127.8307667148
 31
0.0
  0
LINE
  5
53B
330
1F
100
AcDbEntity
  8
0
  6
Continuous
 62
     8
370
    18
100
AcDbLine
 10
334.245241461
 20
142.2265632938
 30
0.0
 11
335.3059016328
 21
142.8388693776
 31
0.0
  0
LINE
  5
53C
330
1F
100
AcDbEntity
  8
0
  6
Continuous
 62
     8
370
    18
100
AcDbLine
 10
337.2600905467
 20
138.853046339
 30
0.0
 11
338.3207507185
 21
139.4653524229
 31
0.0
  0
LINE
  5
53D
330
1F
100
AcDbEntity
  8
0
  6
Continuous
 62
     8
370
    18
100
AcDbLine
 10
339.1589583277
 20
137.6369242029
 30
0.0
 11
338.0982981559
 21
137.024618119
 31
0.0
  0
LINE
  5
53E
330
1F
100
AcDbEntity
  8
0
  6
Continuous
 62
     8
370
    18
100
AcDbLine
 10
336.7201151952
 20
140.3893796421
 30
0.0
 11
335.6594550234
 21
139.7770735582
 31
0.0
  0
LINE
  5
53F
330
1F
100
AcDbEntity
  8
0
  6
Continuous
 62
     8
370
    18
100
AcDbLine
 10
335.9171891742
 20
130.7562518668
 30
0.0
 11
336.977849346
 21
131.3685579507
 31
0.0
  0
LINE
  5
540
330
1F
100
AcDbEntity
  8
0
  6
Continuous
 62
     8
370
    18
100
AcDbLine
 10
340.0867484736
 20
129.4635829384
 30
0.0
 11
339.1018355626
 21
128.8950048174
 31
0.0
  0
LINE
  5
541
330
1F
100
AcDbEntity
  8
0
  6
Continuous
 62
     8
370
    18
100
AcDbLine
 10
340.9267252807
 20
138.6574343427
 30
0.0
 11
340.2556491011
 21
138.2700303103
 31
0.0
  0
LINE
  5
542
330
1F
100
AcDbEntity
  8
0
  6
Continuous
 62
     8
370
    18
100
AcDbLine
 10
338.484912019
 20
132.2385667131
 30
0.0
 11
338.7456162989
 21
132.3890680904
 31
0.0
  0
LINE
  5
543
330
1F
100
AcDbEntity
  8
0
  6
Continuous
 62
     8
370
    18
100
AcDbLine
 10
395.3168520706
 20
92.7770931279
 30
0.0
 11
394.7122615579
 21
93.1261158017
 31
0.0
  0
LINE
  5
544
330
1F
100
AcDbEntity
  8
0
  6
Continuous
 62
     8
370
    18
100
AcDbLine
 10
403.1881526267
 20
96.5045574052
 30
0.0
 11
403.1881526267
 21
97.3210982171
 31
0.0
  0
LINE
  5
545
330
1F
100
AcDbEntity
  8
0
  6
Continuous
 62
     8
370
    18
100
AcDbLine
 10
398.9455119396
 20
99.0559654547
 30
0.0
 11
398.9455119396
 21
98.2394246428
 31
0.0
  0
LINE
  5
546
330
1F
100
AcDbEntity
  8
0
  6
Continuous
 62
     8
370
    18
100
AcDbLine
 10
396.2938615102
 20
100.5867306644
 30
0.0
 11
396.2938615102
 21
99.7701898525
 31
0.0
  0
LINE
  5
547
330
1F
100
AcDbEntity
  8
0
  6
Continuous
 62
     8
370
    18
100
AcDbLine
 10
340.5892012012
 20
140.0172770921
 30
0.0
 11
340.7445953984
 21
140.1069842527
 31
0.0
  0
LINE
  5
548
330
1F
100
AcDbEntity
  8
0
  6
Continuous
 62
     8
370
    18
100
AcDbLine
 10
341.413177995
 20
138.6386392381
 30
0.0
 11
340.7962663146
 21
138.2825037056
 31
0.0
  0
LINE
  5
549
330
1F
100
AcDbEntity
  8
0
  6
Continuous
 62
     8
370
    18
100
AcDbLine
 10
390.4695650548
 20
90.6769725616
 30
0.0
 11
320.8008781291
 21
130.8958494409
 31
0.0
  0
LINE
  5
54A
330
1F
100
AcDbEntity
  8
0
  6
Continuous
 62
     8
370
    18
100
AcDbLine
 10
379.8536288476
 20
117.7346185142
 30
0.0
 11
379.1465220664
 21
117.3264144583
 31
0.0
  0
LINE
  5
54B
330
1F
100
AcDbEntity
  8
0
  6
Continuous
 62
     8
370
    18
100
AcDbLine
 10
320.1962318004
 20
130.643489248
 30
0.0
 11
390.5533565284
 21
90.0271856849
 31
0.0
  0
LINE
  5
54C
330
1F
100
AcDbEntity
  8
0
  6
Continuous
 62
     8
370
    18
100
AcDbLine
 10
381.2678424099
 20
84.6666397838
 30
0.0
 11
381.2678424099
 21
85.4831805957
 31
0.0
  0
LINE
  5
54D
330
1F
100
AcDbEntity
  8
0
  6
Continuous
 62
     8
370
    18
100
AcDbLine
 10
382.6820559723
 20
85.4831805957
 30
0.0
 11
382.6820559723
 21
84.6666397838
 31
0.0
  0
LINE
  5
54E
330
1F
100
AcDbEntity
  8
0
  6
Continuous
 62
     8
370
    18
100
AcDbLine
 10
383.3891627535
 20
90.0754762247
 30
0.0
 11
383.3891627535
 21
89.2589354128
 31
0.0
  0
LINE
  5
54F
330
1F
100
AcDbEntity
  8
0
  6
Continuous
 62
     8
370
    18
100
AcDbLine
 10
377.0252017228
 20
114.2641873637
 30
0.0
 11
377.732308504
 21
114.6723914196
 31
0.0
  0
LINE
  5
550
330
1F
100
AcDbEntity
  8
0
  6
Continuous
 62
     8
370
    18
100
AcDbLine
 10
380.737512324
 20
91.6062414343
 30
0.0
 11
380.737512324
 21
90.7897006224
 31
0.0
  0
LINE
  5
551
330
1F
100
AcDbEntity
  8
0
  6
Continuous
 62
     8
370
    18
100
AcDbLine
 10
375.4755952537
 20
115.9751642487
 30
0.0
 11
374.7684884725
 21
115.5669601927
 31
0.0
  0
LINE
  5
552
330
1F
100
AcDbEntity
  8
0
  6
Continuous
 62
     8
370
    18
100
AcDbLine
 10
337.877644089
 20
136.5976189586
 30
0.0
 11
337.1705373079
 21
136.1894149027
 31
0.0
  0
LINE
  5
553
330
1F
100
AcDbEntity
  8
0
  6
Continuous
 62
     8
370
    18
100
AcDbLine
 10
336.5019547113
 20
137.6577599172
 30
0.0
 11
337.2090614925
 21
138.0659639731
 31
0.0
  0
LINE
  5
554
330
1F
100
AcDbEntity
  8
0
  6
Continuous
 62
     8
370
    18
100
AcDbLine
 10
333.5381346798
 20
143.6554433645
 30
0.0
 11
332.8310278987
 21
143.2472393086
 31
0.0
  0
LINE
  5
555
330
1F
100
AcDbEntity
  8
0
  6
Continuous
 62
     8
370
    18
100
AcDbLine
 10
332.1239211175
 20
144.4719841764
 30
0.0
 11
332.8310278987
 21
144.8801882323
 31
0.0
  0
LINE
  5
556
330
1F
100
AcDbEntity
  8
0
  6
Continuous
 62
     8
370
    18
100
AcDbLine
 10
334.9523482422
 20
139.3687368022
 30
0.0
 11
334.245241461
 21
138.9605327463
 31
0.0
  0
LINE
  5
557
330
1F
100
AcDbEntity
  8
0
  6
Continuous
 62
     8
370
    18
100
AcDbLine
 10
332.8310278987
 20
141.4100224819
 30
0.0
 11
333.5381346798
 21
141.8182265378
 31
0.0
  0
LINE
  5
558
330
1F
100
AcDbEntity
  8
0
  6
Continuous
 62
     8
370
    18
100
AcDbLine
 10
312.3249312442
 20
125.283076047
 30
0.0
 11
312.3249312442
 21
124.4665352351
 31
0.0
  0
LINE
  5
559
330
1F
100
AcDbEntity
  8
0
  6
Continuous
 62
     8
370
    18
100
AcDbLine
 10
322.931532962
 20
124.9769230051
 30
0.0
 11
322.931532962
 21
124.1603821932
 31
0.0
  0
LINE
  5
55A
330
1F
100
AcDbEntity
  8
0
  6
Continuous
 62
     8
370
    18
100
AcDbLine
 10
320.2798825326
 20
126.5076882148
 30
0.0
 11
320.2798825326
 21
125.6911474029
 31
0.0
  0
ENDSEC
  0
SECTION
  2
OBJECTS
  0
DICTIONARY
  5
C
330
0
100
AcDbDictionary
281
     1
  3
ACAD_GROUP
350
D
  3
ACAD_LAYOUT
350
1A
  3
ACAD_MLINESTYLE
350
17
  3
ACAD_PLOTSETTINGS
350
19
  3
ACAD_PLOTSTYLENAME
350
E
  3
ACAD_SCALELIST
350
47
  0
DICTIONARY
  5
D
102
{ACAD_REACTORS
330
C
102
}
330
C
100
AcDbDictionary
281
     1
  0
DICTIONARY
  5
1A
102
{ACAD_REACTORS
330
C
102
}
330
C
100
AcDbDictionary
281
     1
  3
Layout1
350
1E
  3
Layout2
350
26
  3
Model
350
22
  0
DICTIONARY
  5
17
102
{ACAD_REACTORS
330
C
102
}
330
C
100
AcDbDictionary
281
     1
  3
Standard
350
18
  0
DICTIONARY
  5
19
102
{ACAD_REACTORS
330
C
102
}
330
C
100
AcDbDictionary
281
     1
  0
ACDBDICTIONARYWDFLT
  5
E
102
{ACAD_REACTORS
330
C
102
}
330
C
100
AcDbDictionary
281
     1
  3
Normal
350
F
100
AcDbDictionaryWithDefault
340
F
  0
DICTIONARY
  5
47
102
{ACAD_REACTORS
330
C
102
}
330
C
100
AcDbDictionary
281
     1
  3
A0
350
48
  3
A1
350
49
  3
A2
350
4A
  3
A3
350
4B
  3
A4
350
4C
  3
A5
350
4D
  3
A6
350
4E
  3
A7
350
4F
  3
A8
350
50
  3
A9
350
51
  3
B0
350
52
  3
B1
350
53
  3
B2
350
54
  3
B3
350
55
  3
B4
350
56
  3
B5
350
57
  3
B6
350
58
  3
B7
350
59
  3
B8
350
5A
  3
B9
350
5B
  3
C0
350
5C
  3
C1
350
5D
  3
C2
350
5E
  3
C3
350
5F
  3
C4
350
60
  3
C5
350
61
  3
C6
350
62
  3
C7
350
63
  3
C8
350
64
  3
C9
350
65
  3
D0
350
66
  3
D1
350
67
  3
D2
350
68
  0
LAYOUT
  5
1E
102
{ACAD_REACTORS
330
1A
102
}
330
1A
100
AcDbPlotSettings
  1

  2
none_device
  4

  6

 40
0.0
 41
0.0
 42
0.0
 43
0.0
 44
0.0
 45
0.0
 46
0.0
 47
0.0
 48
0.0
 49
0.0
140
0.0
141
0.0
142
1.0
143
1.0
 70
   688
 72
     1
 73
     0
 74
     5
  7

 75
    16
147
1.0
148
0.0
149
0.0
100
AcDbLayout
  1
Layout1
 70
     1
 71
     1
 10
0.0
 20
0.0
 11
420.0
 21
297.0
 12
0.0
 22
0.0
 32
0.0
 14
1.0000000000E+20
 24
1.0000000000E+20
 34
1.0000000000E+20
 15
-1.0000000000E+20
 25
-1.0000000000E+20
 35
-1.0000000000E+20
146
0.0
 13
0.0
 23
0.0
 33
0.0
 16
1.0
 26
0.0
 36
0.0
 17
0.0
 27
1.0
 37
0.0
 76
     0
330
1B
  0
LAYOUT
  5
26
102
{ACAD_REACTORS
330
1A
102
}
330
1A
100
AcDbPlotSettings
  1

  2
none_device
  4

  6

 40
0.0
 41
0.0
 42
0.0
 43
0.0
 44
0.0
 45
0.0
 46
0.0
 47
0.0
 48
0.0
 49
0.0
140
0.0
141
0.0
142
1.0
143
1.0
 70
   688
 72
     1
 73
     0
 74
     5
  7

 75
    16
147
1.0
148
0.0
149
0.0
100
AcDbLayout
  1
Layout2
 70
     1
 71
     2
 10
0.0
 20
0.0
 11
0.0
 21
0.0
 12
0.0
 22
0.0
 32
0.0
 14
0.0
 24
0.0
 34
0.0
 15
0.0
 25
0.0
 35
0.0
146
0.0
 13
0.0
 23
0.0
 33
0.0
 16
1.0
 26
0.0
 36
0.0
 17
0.0
 27
1.0
 37
0.0
 76
     0
330
23
  0
LAYOUT
  5
22
102
{ACAD_REACTORS
330
1A
102
}
330
1A
100
AcDbPlotSettings
  1

  2
none_device
  4
Letter_(8.50_x_11.00_Inches)
  6

 40
6.35
 41
6.35
 42
6.35000508
 43
6.35000508
 44
215.9
 45
279.4
 46
0.0
 47
0.0
 48
0.0
 49
0.0
140
0.0
141
0.0
142
1.0
143
1.0
 70
  1712
 72
     1
 73
     0
 74
     0
  7

 75
     0
147
1.0
148
0.0
149
0.0
100
AcDbLayout
  1
Model
 70
     1
 71
     0
 10
0.0
 20
0.0
 11
420.0
 21
297.0
 12
0.0
 22
0.0
 32
0.0
 14
0.0
 24
0.0
 34
0.0
 15
420.0
 25
297.0
 35
0.0
146
0.0
 13
0.0
 23
0.0
 33
0.0
 16
1.0
 26
0.0
 36
0.0
 17
0.0
 27
1.0
 37
0.0
 76
     0
330
1F
331
29
  0
MLINESTYLE
  5
18
102
{ACAD_REACTORS
330
17
102
}
330
17
100
AcDbMlineStyle
  2
Standard
 70
     0
  3

 62
   256
 51
90.0
 52
90.0
 71
     2
 49
0.5
 62
   256
  6
BYLAYER
 49
-0.5
 62
   256
  6
BYLAYER
  0
ACDBPLACEHOLDER
  5
F
102
{ACAD_REACTORS
330
E
102
}
330
E
  0
SCALE
  5
48
102
{ACAD_REACTORS
330
47
102
}
330
47
100
AcDbScale
 70
     0
300
1:1
140
1.0
141
1.0
290
     1
  0
SCALE
  5
49
102
{ACAD_REACTORS
330
47
102
}
330
47
100
AcDbScale
 70
     0
300
1:2
140
1.0
141
2.0
290
     0
  0
SCALE
  5
4A
102
{ACAD_REACTORS
330
47
102
}
330
47
100
AcDbScale
 70
     0
300
1:4
140
1.0
141
4.0
290
     0
  0
SCALE
  5
4B
102
{ACAD_REACTORS
330
47
102
}
330
47
100
AcDbScale
 70
     0
300
1:5
140
1.0
141
5.0
290
     0
  0
SCALE
  5
4C
102
{ACAD_REACTORS
330
47
102
}
330
47
100
AcDbScale
 70
     0
300
1:8
140
1.0
141
8.0
290
     0
  0
SCALE
  5
4D
102
{ACAD_REACTORS
330
47
102
}
330
47
100
AcDbScale
 70
     0
300
1:10
140
1.0
141
10.0
290
     0
  0
SCALE
  5
4E
102
{ACAD_REACTORS
330
47
102
}
330
47
100
AcDbScale
 70
     0
300
1:16
140
1.0
141
16.0
290
     0
  0
SCALE
  5
4F
102
{ACAD_REACTORS
330
47
102
}
330
47
100
AcDbScale
 70
     0
300
1:20
140
1.0
141
20.0
290
     0
  0
SCALE
  5
50
102
{ACAD_REACTORS
330
47
102
}
330
47
100
AcDbScale
 70
     0
300
1:30
140
1.0
141
30.0
290
     0
  0
SCALE
  5
51
102
{ACAD_REACTORS
330
47
102
}
330
47
100
AcDbScale
 70
     0
300
1:40
140
1.0
141
40.0
290
     0
  0
SCALE
  5
52
102
{ACAD_REACTORS
330
47
102
}
330
47
100
AcDbScale
 70
     0
300
1:50
140
1.0
141
50.0
290
     0
  0
SCALE
  5
53
102
{ACAD_REACTORS
330
47
102
}
330
47
100
AcDbScale
 70
     0
300
1:100
140
1.0
141
100.0
290
     0
  0
SCALE
  5
54
102
{ACAD_REACTORS
330
47
102
}
330
47
100
AcDbScale
 70
     0
300
2:1
140
2.0
141
1.0
290
     0
  0
SCALE
  5
55
102
{ACAD_REACTORS
330
47
102
}
330
47
100
AcDbScale
 70
     0
300
4:1
140
4.0
141
1.0
290
     0
  0
SCALE
  5
56
102
{ACAD_REACTORS
330
47
102
}
330
47
100
AcDbScale
 70
     0
300
8:1
140
8.0
141
1.0
290
     0
  0
SCALE
  5
57
102
{ACAD_REACTORS
330
47
102
}
330
47
100
AcDbScale
 70
     0
300
10:1
140
10.0
141
1.0
290
     0
  0
SCALE
  5
58
102
{ACAD_REACTORS
330
47
102
}
330
47
100
AcDbScale
 70
     0
300
100:1
140
100.0
141
1.0
290
     0
  0
SCALE
  5
59
102
{ACAD_REACTORS
330
47
102
}
330
47
100
AcDbScale
 70
     0
300
1/128" = 1'-0"
140
0.0078125
141
12.0
290
     0
  0
SCALE
  5
5A
102
{ACAD_REACTORS
330
47
102
}
330
47
100
AcDbScale
 70
     0
300
1/64" = 1'-0"
140
0.015625
141
12.0
290
     0
  0
SCALE
  5
5B
102
{ACAD_REACTORS
330
47
102
}
330
47
100
AcDbScale
 70
     0
300
1/32" = 1'-0"
140
0.03125
141
12.0
290
     0
  0
SCALE
  5
5C
102
{ACAD_REACTORS
330
47
102
}
330
47
100
AcDbScale
 70
     0
300
1/16" = 1'-0"
140
0.0625
141
12.0
290
     0
  0
SCALE
  5
5D
102
{ACAD_REACTORS
330
47
102
}
330
47
100
AcDbScale
 70
     0
300
3/32" = 1'-0"
140
0.09375
141
12.0
290
     0
  0
SCALE
  5
5E
102
{ACAD_REACTORS
330
47
102
}
330
47
100
AcDbScale
 70
     0
300
1/8" = 1'-0"
140
0.125
141
12.0
290
     0
  0
SCALE
  5
5F
102
{ACAD_REACTORS
330
47
102
}
330
47
100
AcDbScale
 70
     0
300
3/16" = 1'-0"
140
0.1875
141
12.0
290
     0
  0
SCALE
  5
60
102
{ACAD_REACTORS
330
47
102
}
330
47
100
AcDbScale
 70
     0
300
1/4" = 1'-0"
140
0.25
141
12.0
290
     0
  0
SCALE
  5
61
102
{ACAD_REACTORS
330
47
102
}
330
47
100
AcDbScale
 70
     0
300
3/8" = 1'-0"
140
0.375
141
12.0
290
     0
  0
SCALE
  5
62
102
{ACAD_REACTORS
330
47
102
}
330
47
100
AcDbScale
 70
     0
300
1/2" = 1'-0"
140
0.5
141
12.0
290
     0
  0
SCALE
  5
63
102
{ACAD_REACTORS
330
47
102
}
330
47
100
AcDbScale
 70
     0
300
3/4" = 1'-0"
140
0.75
141
12.0
290
     0
  0
SCALE
  5
64
102
{ACAD_REACTORS
330
47
102
}
330
47
100
AcDbScale
 70
     0
300
1" = 1'-0"
140
1.0
141
12.0
290
     0
  0
SCALE
  5
65
102
{ACAD_REACTORS
330
47
102
}
330
47
100
AcDbScale
 70
     0
300
1-1/2" = 1'-0"
140
1.5
141
12.0
290
     0
  0
SCALE
  5
66
102
{ACAD_REACTORS
330
47
102
}
330
47
100
AcDbScale
 70
     0
300
3" = 1'-0"
140
3.0
141
12.0
290
     0
  0
SCALE
  5
67
102
{ACAD_REACTORS
330
47
102
}
330
47
100
AcDbScale
 70
     0
300
6" = 1'-0"
140
6.0
141
12.0
290
     0
  0
SCALE
  5
68
102
{ACAD_REACTORS
330
47
102
}
330
47
100
AcDbScale
 70
     0
300
1'-0" = 1'-0"
140
12.0
141
12.0
290
     0
  0
ENDSEC
  0
EOF
